<?xml version="1.0" standalone="no"?>
<!DOCTYPE svg PUBLIC "-//W3C//DTD SVG 1.1//EN" "http://www.w3.org/Graphics/SVG/1.1/DTD/svg11.dtd" >
<svg xmlns="http://www.w3.org/2000/svg">
<metadata></metadata>
<defs>
<font id="montserratbold" horiz-adv-x="1228" >
<font-face units-per-em="2048" ascent="1638" descent="-410" />
<missing-glyph horiz-adv-x="475" />
<glyph unicode="&#xfb01;" horiz-adv-x="1427" d="M57 831v234h150v92q0 180 119 279.5t303 99.5q124 0 215 -43l-13 -281q-75 43 -147 43q-58 0 -92.5 -29.5t-34.5 -90.5v-70h250v-234h-250v-831h-350v831h-150zM924 1421q0 82 52 134.5t134 52.5q83 0 135.5 -52.5t52.5 -134.5q0 -83 -52.5 -135.5t-135.5 -52.5 q-82 0 -134 52.5t-52 135.5zM934 0v1104h352v-1104h-352z" />
<glyph unicode="&#xfb02;" horiz-adv-x="1462" d="M57 834l2 231h148v106q0 166 116.5 268t305.5 101q128 0 217 -39l-12 -282q-59 44 -132 47q-64 1 -104.5 -39.5t-40.5 -106.5v-55h252l-2 -231h-250v-834h-350v834h-150zM956 0v1520h355v-1520h-355z" />
<glyph horiz-adv-x="0" />
<glyph horiz-adv-x="682" />
<glyph unicode=" "  horiz-adv-x="475" />
<glyph unicode="&#x09;" horiz-adv-x="475" />
<glyph unicode="&#xa0;" horiz-adv-x="475" />
<glyph unicode="!" horiz-adv-x="520" d="M98 156q0 75 48 122.5t122 47.5q75 0 123.5 -47.5t48.5 -122.5q0 -76 -48.5 -124t-123.5 -48q-74 0 -122 48t-48 124zM106 1061v364h336v-364l-61 -569h-213z" />
<glyph unicode="&#x22;" horiz-adv-x="899" d="M123 874v560h266v-560h-266zM510 874v560h266v-560h-266z" />
<glyph unicode="#" horiz-adv-x="1505" d="M31 319l28 244h279l35 293h-273l27 244h276l41 334h254l-41 -334h287l41 334h254l-41 -334h277l-27 -244h-281l-37 -293h277l-29 -244h-278l-39 -319h-254l39 319h-285l-39 -319h-254l39 319h-276zM592 563h285l36 293h-284z" />
<glyph unicode="$" horiz-adv-x="1318" d="M35 217l141 281q108 -95 255.5 -155t262.5 -60q88 0 137.5 32t49.5 93q0 51 -42 86.5t-108.5 57.5t-147.5 42.5t-162 51t-147.5 73.5t-108.5 119.5t-42 179.5q0 163 107.5 272.5t295.5 145.5v303h271v-293q266 -28 463 -156l-138 -284q-114 66 -242 107.5t-216 41.5 q-73 0 -115.5 -26.5t-42.5 -77.5q0 -39 26 -69t70 -50.5t100.5 -37.5t119.5 -35.5t126 -40t119.5 -55.5t100.5 -77.5t70 -110t26 -149.5q0 -184 -128.5 -296t-338.5 -136v-309h-271v317q-138 22 -265.5 77.5t-225.5 137.5z" />
<glyph unicode="%" horiz-adv-x="2095" d="M63 1008q0 199 108.5 315.5t293.5 116.5q184 0 291.5 -116t107.5 -316q0 -201 -107.5 -318t-291.5 -117q-185 0 -293.5 117t-108.5 318zM291 1008q0 -114 46 -179t128 -65t128 65t46 179t-46 178.5t-128 64.5t-128 -64.5t-46 -178.5zM365 0l1024 1436h331l-1024 -1436 h-331zM1231 428q0 199 108 315.5t293 116.5t292.5 -116.5t107.5 -315.5q0 -201 -108 -318.5t-292 -117.5q-185 0 -293 117.5t-108 318.5zM1458 428q0 -116 46 -181t128 -65t128 65t46 181q0 114 -46 179t-128 65t-128 -65t-46 -179z" />
<glyph unicode="&#x26;" horiz-adv-x="1402" d="M113 401q0 70 22 128.5t64 105t88.5 80.5t109.5 69q-121 173 -121 322q0 157 111.5 250.5t298.5 93.5q181 0 295.5 -90.5t114.5 -231.5q0 -58 -19.5 -110t-49 -89.5t-77 -75t-90 -62.5t-102.5 -56q95 -106 227 -235q58 101 96 229l226 -160q-52 -139 -131 -254l213 -202 l-179 -174l-202 196q-183 -151 -408 -151q-211 0 -349 117.5t-138 299.5zM401 426q0 -87 60.5 -141t152.5 -54q109 0 213 80q-208 208 -292 303q-64 -42 -99 -87t-35 -101zM553 1106q0 -90 74 -203q92 50 142 102.5t50 120.5q0 56 -35.5 90.5t-93.5 34.5q-63 0 -100 -40.5 t-37 -104.5z" />
<glyph unicode="'" horiz-adv-x="512" d="M123 874v560h266v-560h-266z" />
<glyph unicode="(" horiz-adv-x="708" d="M125 633q0 250 68 478t194 409h318q-116 -186 -182 -414.5t-66 -472.5t66 -472.5t182 -414.5h-318q-126 181 -194 409t-68 478z" />
<glyph unicode=")" horiz-adv-x="733" d="M104 -254q116 185 181 413.5t65 473.5t-65 473.5t-181 413.5h318q126 -180 193 -408.5t67 -478.5t-67 -478.5t-193 -408.5h-318z" />
<glyph unicode="*" horiz-adv-x="774" d="M47 1034l170 96l-170 93l88 157l166 -102l-2 195h176l-2 -195l168 98l88 -153l-174 -93l174 -96l-88 -155l-170 104l4 -197h-176l4 197l-168 -100z" />
<glyph unicode="+" horiz-adv-x="1044" d="M68 557v223h342v344h223v-344h344v-223h-344v-344h-223v344h-342z" />
<glyph unicode="," horiz-adv-x="493" d="M55 -197l92 220q-67 44 -67 133q0 73 48 120.5t122 47.5q71 0 119.5 -44.5t48.5 -123.5q0 -68 -45 -136l-150 -217h-168z" />
<glyph unicode="-" horiz-adv-x="765" d="M113 516v223h540v-223h-540z" />
<glyph unicode="." horiz-adv-x="497" d="M78 156q0 75 47.5 122.5t122.5 47.5t123.5 -47.5t48.5 -122.5q0 -76 -48.5 -124t-123.5 -48t-122.5 48t-47.5 124z" />
<glyph unicode="/" horiz-adv-x="722" d="M-74 -227l662 1888h297l-662 -1888h-297z" />
<glyph unicode="0" horiz-adv-x="1439" d="M84 719q0 350 165 538.5t472 188.5q305 0 469 -188.5t164 -538.5q0 -351 -164 -540t-469 -189q-307 0 -472 188.5t-165 540.5zM459 719q0 -245 62 -354t200 -109q136 0 198 109t62 354q0 244 -62 352.5t-198 108.5q-138 0 -200 -108t-62 -353z" />
<glyph unicode="1" horiz-adv-x="843" d="M14 1143v293h629v-1436h-364v1143h-265z" />
<glyph unicode="2" d="M45 1235q287 215 582 215q216 0 352.5 -103t136.5 -272q0 -200 -270 -477l-291 -309h604v-289h-1073v236l512 542q62 65 99.5 131.5t37.5 114.5q0 62 -43 96.5t-119 34.5q-87 0 -189.5 -48t-201.5 -134z" />
<glyph unicode="3" horiz-adv-x="1142" d="M-4 158l147 276q160 -174 359 -174q107 0 164 49t57 137q0 90 -57.5 135.5t-165.5 45.5h-230v194l320 332h-522v279h946v-207l-359 -373l68 -10q162 -26 259 -128t97 -263q0 -207 -150.5 -337t-398.5 -130q-146 0 -290.5 47.5t-243.5 126.5z" />
<glyph unicode="4" horiz-adv-x="1296" d="M55 315v244l453 875h350l-426 -842h303v307h338v-307h195v-277h-195v-315h-338v315h-680z" />
<glyph unicode="5" horiz-adv-x="1218" d="M29 164l145 276q79 -86 173.5 -131t191.5 -45q106 0 164.5 50.5t58.5 142.5q0 85 -58.5 131.5t-164.5 46.5q-242 0 -389 -10v809h940v-289h-609v-232h129q245 0 394 -119.5t149 -312.5q0 -226 -155.5 -360.5t-415.5 -134.5q-139 0 -289 49t-264 129z" />
<glyph unicode="6" horiz-adv-x="1294" d="M84 696q0 343 181 548.5t483 205.5q121 0 246.5 -32t215.5 -87l-139 -254q-128 92 -301 92q-169 0 -254 -100t-82 -281q109 154 342 154q212 0 337.5 -126.5t125.5 -336.5q0 -226 -146.5 -360.5t-390.5 -134.5q-288 0 -453 190.5t-165 521.5zM473 475q0 -85 55 -143 t160 -58q99 0 156 54t57 153q0 92 -54.5 143.5t-152.5 51.5q-104 0 -162.5 -55.5t-58.5 -145.5z" />
<glyph unicode="7" horiz-adv-x="1216" d="M68 944v490h1116v-248l-529 -1186h-385l512 1145h-395v-201h-319z" />
<glyph unicode="8" horiz-adv-x="1314" d="M70 399q0 122 73.5 220.5t198.5 148.5q-92 52 -145.5 133t-53.5 174q0 172 139 273.5t373 101.5q236 0 375 -104t139 -281q0 -94 -47.5 -172.5t-132.5 -124.5q119 -50 187.5 -146t68.5 -216q0 -193 -159.5 -307.5t-428.5 -114.5t-428 112.5t-159 302.5zM414 436 q0 -91 62.5 -139.5t180.5 -48.5q119 0 182.5 48t63.5 140q0 89 -64 138t-182 49t-180.5 -48.5t-62.5 -138.5zM451 1044q0 -77 53 -118t153 -41t153.5 41t53.5 118q0 80 -53.5 123t-153.5 43q-99 0 -152.5 -43t-53.5 -123z" />
<glyph unicode="9" horiz-adv-x="1294" d="M61 956q0 227 146.5 361.5t390.5 134.5q288 0 453.5 -191t165.5 -522q0 -343 -181 -548t-483 -205q-122 0 -247.5 31.5t-215.5 86.5l139 254q128 -92 301 -92q169 0 254 100t82 281q-108 -153 -342 -153q-212 0 -337.5 126t-125.5 336zM399 954q0 -92 54.5 -143 t152.5 -51q104 0 162.5 55.5t58.5 145.5q0 85 -55 142.5t-160 57.5q-99 0 -156 -54t-57 -153z" />
<glyph unicode=":" horiz-adv-x="491" d="M78 156q0 75 47.5 122.5t122.5 47.5t123.5 -47.5t48.5 -122.5q0 -76 -48.5 -124t-123.5 -48t-122.5 48t-47.5 124zM78 764q0 75 47.5 122.5t122.5 47.5t123.5 -47.5t48.5 -122.5q0 -76 -48.5 -124t-123.5 -48t-122.5 48t-47.5 124z" />
<glyph unicode=";" horiz-adv-x="495" d="M55 -197l92 220q-67 44 -67 133q0 73 48 120.5t122 47.5q71 0 119.5 -44.5t48.5 -123.5q0 -68 -45 -136l-150 -217h-168zM78 764q0 75 47.5 122.5t122.5 47.5t123.5 -47.5t48.5 -122.5q0 -76 -48.5 -124t-123.5 -48t-122.5 48t-47.5 124z" />
<glyph unicode="&#x3c;" horiz-adv-x="1044" d="M68 522v285l909 379v-250l-680 -272l680 -273v-248z" />
<glyph unicode="=" horiz-adv-x="1044" d="M68 338v223h909v-223h-909zM68 778v223h909v-223h-909z" />
<glyph unicode="&#x3e;" horiz-adv-x="1044" d="M66 158v250l682 272l-682 272v248l911 -379v-284z" />
<glyph unicode="?" horiz-adv-x="966" d="M6 975q3 220 126.5 342.5t340.5 122.5q206 0 323 -93.5t117 -263.5q0 -63 -17.5 -117.5t-45 -94t-61 -75t-66.5 -69t-60.5 -67.5t-45 -77.5t-17.5 -93.5h-264q0 74 18.5 135.5t46.5 99.5t61 76t61 67t46.5 70.5t18.5 88.5q0 133 -148 133q-158 0 -161 -186zM293 156 q0 75 47.5 122.5t122.5 47.5t123.5 -47.5t48.5 -122.5q0 -76 -48.5 -124t-123.5 -48t-122.5 48t-47.5 124z" />
<glyph unicode="@" horiz-adv-x="1878" d="M49 549q0 184 70.5 348t191.5 281.5t288 186.5t353 69q248 0 448.5 -112.5t314.5 -312.5t114 -448q0 -227 -110 -365.5t-283 -138.5q-201 0 -240 160l-4 27q-114 -164 -309 -164q-86 0 -166.5 34.5t-143 94.5t-100 150t-37.5 194q0 202 116.5 341.5t303.5 139.5 q57 0 110.5 -17t87.5 -40.5t55 -43t26 -30.5v109h249v-690q0 -101 76 -101q67 0 118.5 95.5t51.5 238.5q0 197 -79.5 353t-235 248.5t-363.5 92.5q-143 0 -273 -55t-224 -148.5t-149.5 -223.5t-55.5 -273q0 -189 88.5 -342.5t243.5 -239.5t344 -86q95 0 200 32t187 93 l94 -164q-89 -66 -224.5 -106.5t-256.5 -40.5q-184 0 -346.5 65t-279 178t-184 272t-67.5 339zM709 563q0 -108 55 -184t145 -76q95 0 152 74t57 184q0 104 -57.5 175t-153.5 71q-87 0 -142.5 -71t-55.5 -173z" />
<glyph unicode="A" horiz-adv-x="1576" d="M-10 0l618 1434h375l604 -1434h-389l-102 264h-627l-104 -264h-375zM575 541h414l-205 530z" />
<glyph unicode="B" horiz-adv-x="1464" d="M143 0v1434h678q241 0 384 -97.5t143 -261.5q0 -114 -66 -198.5t-180 -116.5q135 -26 215 -124.5t80 -238.5q0 -183 -148.5 -290t-402.5 -107h-703zM506 281h295q102 0 160.5 42.5t58.5 118.5q0 72 -59 114t-160 42h-295v-317zM506 860h295q80 0 127 40.5t47 109.5 q0 68 -47 106.5t-127 38.5h-295v-295z" />
<glyph unicode="C" horiz-adv-x="1417" d="M49 721q0 204 100 370t275.5 260.5t390.5 94.5q159 0 314.5 -65.5t263.5 -176.5l-211 -250q-70 86 -168 136.5t-193 50.5q-170 0 -284.5 -119.5t-114.5 -296.5q0 -180 114.5 -301t284.5 -121q90 0 188 45.5t173 122.5l213 -225q-117 -120 -276 -191t-316 -71 q-159 0 -299.5 56.5t-240 154t-157 234.5t-57.5 292z" />
<glyph unicode="D" horiz-adv-x="1570" d="M143 0v1434h617q223 0 396.5 -90t269.5 -253t96 -374q0 -210 -97.5 -373t-274.5 -253.5t-405 -90.5h-602zM508 291h260q168 0 275.5 118t107.5 306q0 189 -112.5 308.5t-286.5 119.5h-244v-852z" />
<glyph unicode="E" horiz-adv-x="1380" d="M143 0v1434h1123v-287h-758v-285h684v-287h-684v-288h780v-287h-1145z" />
<glyph unicode="F" horiz-adv-x="1236" d="M143 0v1434h1063v-287h-698v-332h643v-287h-643v-528h-365z" />
<glyph unicode="G" horiz-adv-x="1521" d="M49 717q0 205 102.5 372t284 262t404.5 95q160 0 317.5 -57.5t267.5 -155.5l-204 -248q-78 72 -180.5 114t-202.5 42q-177 0 -296.5 -122t-119.5 -302q0 -183 120.5 -305.5t299.5 -122.5q116 0 254 69v371h315v-559q-116 -82 -281 -134t-315 -52q-215 0 -390.5 95.5 t-275.5 263.5t-100 374z" />
<glyph unicode="H" horiz-adv-x="1609" d="M143 0v1434h365v-590h594v590h364v-1434h-364v557h-594v-557h-365z" />
<glyph unicode="I" horiz-adv-x="651" d="M143 0v1434h365v-1434h-365z" />
<glyph unicode="J" horiz-adv-x="1097" d="M-10 213l168 244q74 -77 154.5 -118.5t146.5 -41.5q73 0 113 44.5t40 131.5v668h-491v295h858v-971q0 -227 -133 -354t-363 -127q-292 0 -493 229z" />
<glyph unicode="K" horiz-adv-x="1529" d="M143 0v1434h365v-621l549 621h422l-533 -594l567 -840h-436l-379 563l-190 -211v-352h-365z" />
<glyph unicode="L" horiz-adv-x="1146" d="M143 0v1434h365v-1129h608v-305h-973z" />
<glyph unicode="M" horiz-adv-x="1863" d="M143 0v1436h400l389 -854l389 854h397v-1436h-321l-2 932l-344 -789h-238l-344 789v-932h-326z" />
<glyph unicode="N" horiz-adv-x="1609" d="M143 0v1434h322l661 -885v885h340v-1434h-321l-660 883v-883h-342z" />
<glyph unicode="O" horiz-adv-x="1648" d="M49 719q0 124 37.5 236t108 201t165 154.5t213.5 100.5t250 35q164 0 308 -55.5t247 -151.5t162 -231t59 -289t-59.5 -290.5t-162 -234t-246.5 -154t-308 -56.5q-163 0 -307 56t-246.5 153.5t-161.5 234t-59 291.5zM422 717q0 -180 119.5 -304t285.5 -124t282 123.5 t116 304.5q0 180 -115.5 302t-282.5 122q-168 0 -286.5 -122t-118.5 -302z" />
<glyph unicode="P" horiz-adv-x="1392" d="M143 0v1434h625q276 0 427 -130.5t151 -369.5q0 -252 -151.5 -391.5t-426.5 -139.5h-260v-403h-365zM508 690h242q121 0 186 59.5t65 172.5q0 111 -65 168t-186 57h-242v-457z" />
<glyph unicode="Q" horiz-adv-x="1658" d="M49 719q0 124 37.5 236t108 201t165 154.5t213.5 100.5t250 35q164 0 308 -55.5t247 -151.5t162 -231t59 -289q0 -236 -130 -420t-347 -264q79 -98 174 -98q106 0 246 108l129 -225q-83 -73 -195.5 -115.5t-220.5 -42.5q-148 0 -268.5 85.5t-191.5 236.5 q-158 5 -296.5 63t-237.5 155t-155.5 231t-56.5 286zM422 717q0 -180 119.5 -304t285.5 -124t282 123.5t116 304.5q0 180 -115.5 302t-282.5 122q-168 0 -286.5 -122t-118.5 -302z" />
<glyph unicode="R" horiz-adv-x="1482" d="M143 0v1434h641q284 0 440 -130.5t156 -369.5q0 -163 -66.5 -280.5t-193.5 -180.5l301 -473h-413l-213 403h-11h-276v-403h-365zM508 690h276q120 0 185 59.5t65 172.5q0 111 -65 168t-185 57h-276v-457z" />
<glyph unicode="S" horiz-adv-x="1318" d="M35 217l141 281q108 -95 255.5 -155t262.5 -60q88 0 137.5 32t49.5 93q0 51 -42 86.5t-108.5 57.5t-147.5 42.5t-162 51t-147.5 73.5t-108.5 119.5t-42 179.5q0 197 156 314.5t415 117.5q153 0 303.5 -43.5t262.5 -116.5l-138 -284q-114 66 -242 107.5t-216 41.5 q-73 0 -115.5 -26.5t-42.5 -77.5q0 -39 26 -69t70 -50.5t100.5 -37.5t119.5 -35.5t126 -40t119.5 -55.5t100.5 -77.5t70 -110t26 -149.5q0 -105 -44.5 -189t-123 -138t-182 -82.5t-224.5 -28.5q-178 0 -352 61.5t-303 167.5z" />
<glyph unicode="T" horiz-adv-x="1251" d="M14 1141v295h1225v-295h-432v-1141h-365v1141h-428z" />
<glyph unicode="U" horiz-adv-x="1552" d="M119 602v832h364v-832q0 -144 83 -228.5t216 -84.5q130 0 209.5 84t79.5 229v832h363v-832q0 -284 -176.5 -451t-477.5 -167q-303 0 -482 167t-179 451z" />
<glyph unicode="V" horiz-adv-x="1492" d="M-2 1434h389l367 -1055l366 1055h375l-563 -1434h-377z" />
<glyph unicode="W" horiz-adv-x="2213" d="M-2 1434h389l281 -1055l274 1055h356l281 -1055l276 1055h373l-473 -1434h-375l-266 991l-270 -991h-377z" />
<glyph unicode="X" horiz-adv-x="1503" d="M10 0l512 733l-479 701h424l276 -418l277 418h428l-473 -684l514 -750h-436l-310 457l-309 -457h-424z" />
<glyph unicode="Y" horiz-adv-x="1392" d="M-10 1434h364l346 -625l338 625h365l-520 -971v-463h-363v453z" />
<glyph unicode="Z" horiz-adv-x="1382" d="M57 0v233l768 912h-741v289h1227v-234l-766 -911h778v-289h-1266z" />
<glyph unicode="[" horiz-adv-x="741" d="M143 -254v1774h562v-263h-246v-1249h246v-262h-562z" />
<glyph unicode="\" horiz-adv-x="931" d="M27 1661h297l661 -1888h-297z" />
<glyph unicode="]" horiz-adv-x="886" d="M182 8h246v1249h-246v263h561v-1774h-561v262z" />
<glyph unicode="^" horiz-adv-x="1177" d="M66 283l380 792h285l379 -792h-250l-272 591l-273 -591h-249z" />
<glyph unicode="_" horiz-adv-x="1193" d="M0 -225h1194v-193h-1194v193z" />
<glyph unicode="`" horiz-adv-x="716" d="M84 1460l319 113l218 -344h-271z" />
<glyph unicode="a" d="M55 330q0 158 110 245.5t314 88.5h291v16q0 83 -54.5 128.5t-160.5 45.5q-148 0 -330 -92l-100 233q269 125 512 125q227 0 353 -105.5t128 -293.5v-721h-346v127q-110 -143 -338 -143q-175 0 -277 95.5t-102 250.5zM387 354q0 -60 41.5 -95.5t114.5 -35.5 q83 0 146.5 42.5t80.5 109.5v98h-223q-160 0 -160 -119z" />
<glyph unicode="b" horiz-adv-x="1402" d="M152 0v1520h354v-562q123 158 330 158q233 0 375.5 -156.5t142.5 -412.5q0 -252 -139.5 -405.5t-370.5 -153.5q-216 0 -338 159v-147h-354zM506 557q0 -129 68 -209t176 -80q110 0 178.5 80.5t68.5 208.5q0 126 -68.5 206.5t-178.5 80.5q-107 0 -175.5 -80.5 t-68.5 -206.5z" />
<glyph unicode="c" horiz-adv-x="1150" d="M49 549q0 255 158.5 411t415.5 156q164 0 291.5 -64.5t199.5 -183.5l-254 -153q-81 114 -223 114q-103 0 -167 -77t-64 -201q0 -127 64 -204t167 -77q155 0 225 125l258 -151q-68 -122 -198 -189t-304 -67q-255 0 -412 154.5t-157 406.5z" />
<glyph unicode="d" horiz-adv-x="1404" d="M51 557q0 253 139.5 407t368.5 154q218 0 340 -160v562h354v-1520h-354v145q-122 -159 -332 -159q-233 0 -374.5 157t-141.5 414zM406 549q2 -128 69.5 -208.5t177.5 -80.5t178 80.5t68 208.5t-68 207.5t-178 79.5t-177.5 -79.5t-69.5 -207.5z" />
<glyph unicode="e" horiz-adv-x="1232" d="M49 549q0 256 159.5 411.5t416.5 155.5q288 0 432 -176q127 -155 127 -413q0 -34 -2 -70h-776q26 -98 94 -151.5t166 -53.5q151 0 264 113l186 -183q-178 -194 -481 -194q-268 0 -427 153.5t-159 407.5zM399 647h443q0 101 -58.5 162t-154.5 61q-91 0 -151.5 -60.5 t-78.5 -162.5z" />
<glyph unicode="f" horiz-adv-x="790" d="M57 821v234h150v102q0 178 118.5 278.5t303.5 100.5q175 0 309 -78l-125 -248q-61 45 -129 45h-7q-51 0 -85 -29q-35 -32 -35 -91v-80h250v-234h-250v-821h-350v821h-150z" />
<glyph unicode="g" horiz-adv-x="1325" d="M51 594q0 234 129.5 378t337.5 144h8q204 0 318 -147v135h352v-1004q0 -233 -164.5 -372.5t-433.5 -139.5q-139 0 -266 39.5t-226 106.5l123 239q157 -110 342 -110q127 0 200 61.5t73 165.5v117q-113 -148 -318 -148q-210 0 -342.5 147.5t-132.5 387.5zM381 584 q0 -119 64.5 -194t168.5 -75q102 0 166 75t64 194q0 121 -63.5 195.5t-166.5 74.5q-104 0 -168.5 -75t-64.5 -195z" />
<glyph unicode="h" horiz-adv-x="1388" d="M152 0v1520h354v-598q116 195 371 198q183 0 293 -115.5t110 -308.5v-696h-354v598q0 97 -52 153t-143 56q-103 0 -164 -73t-61 -189v-545h-354z" />
<glyph unicode="i" horiz-adv-x="636" d="M133 1421q0 82 52 134.5t134 52.5t134.5 -52.5t52.5 -134.5q0 -83 -52.5 -135.5t-134.5 -52.5t-134 52.5t-52 135.5zM141 0v1104h353v-1104h-353z" />
<glyph unicode="j" horiz-adv-x="653" d="M-178 -340l90 248q64 -39 125 -39h6q47 0 73 29q29 30 29 92v1114h355v-1137q0 -180 -114 -281q-111 -98 -281 -98h-7q-160 0 -276 72zM121 1419q0 83 56.5 136t144.5 53q89 0 144.5 -52.5t55.5 -136.5q0 -82 -55.5 -134t-144.5 -52q-88 0 -144.5 52t-56.5 134z" />
<glyph unicode="k" horiz-adv-x="1290" d="M152 0v1520h354v-803l364 387h402l-406 -424l418 -680h-420l-239 426l-119 -125v-301h-354z" />
<glyph unicode="l" horiz-adv-x="657" d="M152 0v1520h354v-1520h-354z" />
<glyph unicode="m" horiz-adv-x="2123" d="M141 0v1104h353v-182q113 195 364 198q134 0 230.5 -66t138.5 -184q54 122 153 185t236 65q181 0 289 -115t108 -309v-696h-352v598q0 98 -51.5 154.5t-139.5 56.5q-99 -3 -157 -75.5t-58 -186.5v-547h-354v598q0 98 -50 154.5t-138 56.5q-100 -3 -159.5 -75.5 t-59.5 -186.5v-547h-353z" />
<glyph unicode="n" horiz-adv-x="1378" d="M141 0v1104h355v-180q117 193 368 196q183 0 293.5 -115.5t110.5 -308.5v-696h-353v598q0 97 -52.5 153t-141.5 56q-95 0 -154.5 -61.5t-70.5 -161.5v-584h-355z" />
<glyph unicode="o" horiz-adv-x="1304" d="M49 553q0 255 166 409t438 154q271 0 436.5 -154.5t165.5 -408.5q0 -255 -166 -410t-436 -155q-272 0 -438 155t-166 410zM406 549q0 -129 68.5 -208t178.5 -79q109 0 177.5 79.5t68.5 207.5q0 127 -68.5 207t-177.5 80q-110 0 -178.5 -79.5t-68.5 -207.5z" />
<glyph unicode="p" horiz-adv-x="1402" d="M152 -397v1501h354v-146q123 158 330 158q233 0 375.5 -156.5t142.5 -412.5q0 -252 -139.5 -405.5t-370.5 -153.5q-216 0 -338 159v-544h-354zM506 557q0 -129 68 -209t176 -80q110 0 178.5 80.5t68.5 208.5q0 126 -68.5 206.5t-178.5 80.5q-107 0 -175.5 -80.5 t-68.5 -206.5z" />
<glyph unicode="q" horiz-adv-x="1404" d="M51 557q0 253 139.5 407t368.5 154q218 0 340 -160v146h354v-1501h-354v542q-122 -159 -332 -159q-233 0 -374.5 157t-141.5 414zM406 549q2 -128 69.5 -208.5t177.5 -80.5t178 80.5t68 208.5t-68 207.5t-178 79.5t-177.5 -79.5t-69.5 -207.5z" />
<glyph unicode="r" horiz-adv-x="874" d="M141 0v1104h355v-186q57 97 148.5 149t209.5 53v-319q-26 2 -50 2q-118 0 -198 -53q-96 -64 -110 -183v-567h-355z" />
<glyph unicode="s" horiz-adv-x="1050" d="M33 141l112 226q93 -66 196 -102t196 -36q54 0 87 19.5t33 56.5q0 29 -24.5 51t-64.5 35.5t-91.5 30t-105 31.5t-104.5 42.5t-91 61.5t-64 89t-24 124q0 165 125 257.5t324 92.5q243 0 454 -125l-121 -229q-205 111 -348 111q-49 0 -78.5 -19.5t-29.5 -56.5q0 -27 25 -48 t66 -34.5t93 -29.5t106.5 -32t106.5 -43.5t92.5 -62t65 -89.5t24.5 -124q0 -166 -129.5 -259t-335.5 -93q-140 0 -268 39.5t-227 115.5z" />
<glyph unicode="t" horiz-adv-x="890" d="M39 821v232h154v307h352v-305h289v-234h-289v-432q0 -63 26 -93q24 -28 70 -28h6q52 0 137 37l70 -246q-128 -75 -295 -75q-165 0 -265.5 91.5t-100.5 258.5v487h-154z" />
<glyph unicode="u" horiz-adv-x="1357" d="M109 408v696h354v-596q0 -98 49.5 -154.5t134.5 -56.5q99 1 157 74t58 188v545h355v-1104h-355v182q-114 -196 -358 -196q-180 0 -287.5 114.5t-107.5 307.5z" />
<glyph unicode="v" horiz-adv-x="1169" d="M-10 1104h364l238 -780l239 780h353l-416 -1104h-362z" />
<glyph unicode="w" horiz-adv-x="1918" d="M-10 1104h360l228 -764l221 764h338l227 -764l223 764h346l-403 -1104h-350l-217 700l-218 -700h-352z" />
<glyph unicode="x" horiz-adv-x="1241" d="M8 0l377 565l-352 539h405l185 -318l196 318h387l-350 -537l375 -567h-408l-200 346l-226 -346h-389z" />
<glyph unicode="y" horiz-adv-x="1187" d="M-25 1104h365l270 -733l240 733h352l-477 -1219q-122 -299 -426 -299q-176 0 -322 113l148 242q75 -60 145 -60q95 0 138 88l26 56z" />
<glyph unicode="z" horiz-adv-x="1132" d="M70 0v213l542 625h-522v266h965v-213l-541 -625h559v-266h-1003z" />
<glyph unicode="{" horiz-adv-x="729" d="M49 498v270h80q41 0 58.5 19.5t17.5 68.5v381q0 158 79.5 221.5t278.5 63.5h137v-260q-103 0 -141.5 -30t-38.5 -104v-249q0 -111 -39 -167.5t-133 -78.5q94 -23 133 -80t39 -168v-248q0 -74 38 -103.5t142 -29.5v-262h-137q-199 0 -278.5 64t-79.5 223v379 q0 49 -18 69.5t-58 20.5h-80z" />
<glyph unicode="|" horiz-adv-x="612" d="M174 -225v1870h264v-1870h-264z" />
<glyph unicode="}" horiz-adv-x="800" d="M137 4q102 0 141 30t39 103v248q0 112 38.5 168.5t133.5 77.5q-95 23 -133.5 79.5t-38.5 168.5v249q0 74 -39 104t-141 30v260h135q199 0 279 -63.5t80 -221.5v-381q0 -49 18 -68.5t60 -19.5h77v-270h-77q-42 0 -60 -20.5t-18 -69.5v-379q0 -159 -80 -223t-279 -64h-135 v262z" />
<glyph unicode="~" horiz-adv-x="1044" d="M115 496q0 177 57 262.5t174 85.5q46 0 92 -16.5t75.5 -36t61 -36t52.5 -16.5q67 0 67 95h236q0 -349 -232 -349q-47 0 -92.5 16.5t-74.5 36t-60 36t-53 16.5q-66 0 -66 -94h-237z" />
<glyph unicode="&#xa1;" horiz-adv-x="520" d="M104 43l62 567h213l61 -567v-367h-336v367zM106 946q0 77 48.5 125.5t124.5 48.5q74 0 122 -49t48 -125q0 -75 -48 -122.5t-122 -47.5q-76 0 -124.5 47.5t-48.5 122.5z" />
<glyph unicode="&#xa2;" horiz-adv-x="1144" d="M49 549q0 221 122 370.5t327 186.5v326h274v-330q230 -51 342 -234l-254 -153q-81 114 -223 114q-103 0 -167 -77t-64 -201q0 -127 64 -204t167 -77q155 0 225 125l258 -151q-107 -192 -348 -242v-317h-274v313q-205 35 -327 183t-122 368z" />
<glyph unicode="&#xa3;" horiz-adv-x="1140" d="M57 0v274h156v301h-156v242h156v154q0 229 127.5 354t359.5 125q125 0 238.5 -45.5t198.5 -130.5l-138 -266q-131 137 -260 137q-159 0 -159 -182v-146h342v-242h-342v-301h528v-274h-1051z" />
<glyph unicode="&#xa4;" horiz-adv-x="1435" d="M49 180l209 209q-74 123 -74 268q0 143 70 261l-205 202l199 199l203 -203q125 72 266 72q142 0 270 -72l201 203l198 -199l-202 -202q69 -117 69 -261q0 -149 -75 -268l208 -209l-198 -198l-211 213q-126 -66 -260 -66t-256 66l-213 -213zM461 657q0 -104 75 -177.5 t181 -73.5q107 0 183.5 73.5t76.5 177.5q0 106 -76.5 181t-183.5 75q-106 0 -181 -75t-75 -181z" />
<glyph unicode="&#xa5;" horiz-adv-x="1361" d="M-10 1436h364l346 -629l338 629h365l-397 -742h235v-133h-307l-51 -96v-37h358v-135h-358v-293h-363v293h-379v135h379v27l-57 106h-322v133h250z" />
<glyph unicode="&#xa6;" horiz-adv-x="612" d="M174 -225v702h264v-702h-264zM174 944v701h264v-701h-264z" />
<glyph unicode="&#xa7;" horiz-adv-x="1116" d="M33 -23l100 220q205 -140 393 -140q66 0 105 22.5t39 57.5q0 33 -33.5 59t-86.5 44.5t-117.5 38t-129 46.5t-117.5 62.5t-86.5 93.5t-33.5 133q0 94 56.5 164t158.5 107q-84 44 -116 92.5t-32 118.5q0 144 121.5 234.5t323.5 90.5q233 0 456 -125l-106 -217 q-208 109 -346 109q-62 0 -96.5 -21t-34.5 -57q0 -34 34 -60t88 -45t119.5 -38.5t131 -46.5t119.5 -62.5t88 -94.5t34 -134q0 -89 -55.5 -162.5t-147.5 -110.5q71 -42 102 -87.5t31 -121.5q0 -145 -125.5 -236t-334.5 -91q-134 0 -264.5 40.5t-237.5 116.5zM381 637 q0 -50 59 -81.5t148 -31.5q74 0 112.5 23t38.5 63q0 50 -60 81.5t-149 31.5q-72 0 -110.5 -23t-38.5 -63z" />
<glyph unicode="&#xa8;" horiz-adv-x="753" d="M2 1417q0 69 45 114.5t115 45.5q69 0 113 -45.5t44 -114.5q0 -70 -44 -115t-113 -45q-70 0 -115 44.5t-45 115.5zM397 1417q0 69 45 114.5t115 45.5q69 0 114.5 -45.5t45.5 -114.5q0 -70 -45.5 -115t-114.5 -45q-71 0 -115.5 44.5t-44.5 115.5z" />
<glyph unicode="&#xa9;" horiz-adv-x="1484" d="M49 713q0 140 54 268.5t146 223t221 150.5t273 56q191 0 350.5 -93.5t251 -253t91.5 -347.5q0 -187 -92 -348t-253 -256t-352 -95q-143 0 -271.5 55.5t-220 149.5t-145 222t-53.5 268zM213 713q0 -144 68.5 -266t190 -193.5t267.5 -71.5q147 0 270.5 72.5t194 195.5 t70.5 267t-69.5 265.5t-192 193t-269.5 71.5t-269.5 -72.5t-191.5 -195t-69 -266.5zM397 715q0 146 102.5 243t256.5 97q74 0 146.5 -30.5t123.5 -82.5l-98 -117q-34 40 -79 63t-89 23q-82 0 -136.5 -55t-54.5 -137q0 -85 54.5 -142t136.5 -57q41 0 87 21.5t81 56.5l98 -104 q-54 -57 -127.5 -90t-148.5 -33q-151 0 -252 98t-101 246z" />
<glyph unicode="&#xaa;" horiz-adv-x="804" d="M43 1133q0 95 69.5 145.5t198.5 50.5h178v10q0 45 -33 70t-96 25q-88 0 -217 -50l-57 156q179 68 332 68q147 0 228.5 -63t80.5 -177v-430h-238v84q-69 -94 -215 -94q-106 0 -168.5 56t-62.5 149zM272 1151q0 -34 22.5 -54t63.5 -20q88 0 131 72v70h-127q-90 0 -90 -68z " />
<glyph unicode="&#xab;" horiz-adv-x="1028" d="M4 545l246 377h287l-218 -377l218 -377h-287zM459 545l246 377h286l-219 -377l219 -377h-286z" />
<glyph unicode="&#xac;" horiz-adv-x="1183" d="M68 649v223h985v-591h-254v368h-731z" />
<glyph unicode="&#xad;" horiz-adv-x="765" d="M113 516v223h540v-223h-540z" />
<glyph unicode="&#xae;" horiz-adv-x="1484" d="M49 713q0 140 54 268.5t146 223t221 150.5t273 56q191 0 350.5 -93.5t251 -253t91.5 -347.5q0 -187 -92 -348t-253 -256t-352 -95q-143 0 -271.5 55.5t-220 149.5t-145 222t-53.5 268zM213 713q0 -144 68.5 -266t190 -193.5t267.5 -71.5q147 0 270.5 72.5t194 195.5 t70.5 267t-69.5 265.5t-192 193t-269.5 71.5t-269.5 -72.5t-191.5 -195t-69 -266.5zM479 410v655h283q130 0 201 -59t71 -168q0 -152 -119 -213l140 -215h-187l-98 184h-8h-121v-184h-162zM641 721h121q56 0 86.5 29t30.5 81t-30.5 80.5t-86.5 28.5h-121v-219z" />
<glyph unicode="&#xaf;" horiz-adv-x="716" d="M74 1294v238h569v-238h-569z" />
<glyph unicode="&#xb0;" horiz-adv-x="765" d="M170 1432q0 99 72 170t172 71q101 0 172 -70.5t71 -170.5t-71 -171t-172 -71q-100 0 -172 71t-72 171zM307 1432q0 -43 32 -74t75 -31q44 0 75 31t31 74t-31 73.5t-75 30.5q-43 0 -75 -31t-32 -73z" />
<glyph unicode="&#xb1;" horiz-adv-x="1044" d="M68 4v225h909v-225h-909zM68 713v215h342v332h223v-332h344v-215h-344v-330h-223v330h-342z" />
<glyph unicode="&#xb2;" horiz-adv-x="796" d="M37 1313q187 131 375 131q136 0 222.5 -62t86.5 -163q0 -124 -170 -287l-168 -166h360v-186h-677v153l317 318q78 82 78 133q0 65 -88 65q-53 0 -117 -28.5t-125 -79.5z" />
<glyph unicode="&#xb3;" horiz-adv-x="747" d="M10 676l101 182q98 -110 221 -110q58 0 90.5 26.5t32.5 73.5t-32.5 71.5t-92.5 24.5h-148v125l193 188h-322v175h604v-138l-213 -202l41 -9q96 -16 154.5 -77t58.5 -156q0 -124 -94.5 -202.5t-251.5 -78.5q-94 0 -187 29.5t-155 77.5z" />
<glyph unicode="&#xb4;" horiz-adv-x="716" d="M90 1229l217 344l320 -113l-267 -231h-270z" />
<glyph unicode="&#xb5;" horiz-adv-x="1400" d="M152 -397v1501h354v-596q0 -98 49.5 -154.5t134.5 -56.5q99 1 157 74t58 188v545h355v-1104h-355v182q-114 -196 -358 -196l-41 2v-385h-354z" />
<glyph unicode="&#xb6;" horiz-adv-x="1331" d="M-12 1083q0 86 28 162t85 139t155.5 99.5t228.5 36.5h703v-1739h-264v1540h-205v-1540h-262v885h-56q-95 0 -169.5 28t-119 71t-73.5 100.5t-40 110.5t-11 107z" />
<glyph unicode="&#xb7;" horiz-adv-x="491" d="M78 592q0 73 47 120.5t119 47.5q74 0 121 -47t47 -121t-47 -121t-121 -47q-72 0 -119 47.5t-47 120.5z" />
<glyph unicode="&#xb8;" horiz-adv-x="716" d="M133 -418l66 146q44 -41 100 -41q39 0 62.5 21.5t23.5 53.5t-25 53t-69 21q-24 0 -74 -8l96 201h199l-68 -133q65 -18 102.5 -61t37.5 -105q0 -96 -71 -153.5t-185 -57.5q-103 0 -195 63z" />
<glyph unicode="&#xb9;" horiz-adv-x="561" d="M20 1243v191h412v-854h-250v663h-162z" />
<glyph unicode="&#xba;" horiz-adv-x="845" d="M41 1268q0 154 104.5 247t276.5 93q173 0 278 -93t105 -247q0 -152 -105 -245t-278 -93q-172 0 -276.5 93t-104.5 245zM285 1266q0 -70 37.5 -113t99.5 -43t99.5 43t37.5 113t-37.5 112.5t-99.5 42.5t-99.5 -42.5t-37.5 -112.5z" />
<glyph unicode="&#xbb;" horiz-adv-x="1040" d="M72 168l217 377l-217 377h286l246 -377l-246 -377h-286zM526 168l217 377l-217 377h287l246 -377l-246 -377h-287z" />
<glyph unicode="&#xbc;" horiz-adv-x="1804" d="M20 1243v191h412v-854h-250v663h-162zM137 0l1024 1436h332l-1024 -1436h-332zM1004 178v162l274 514h240l-261 -504h170v182h232v-182h119v-172h-119v-178h-232v178h-423z" />
<glyph unicode="&#xbd;" horiz-adv-x="1847" d="M20 1243v191h412v-854h-250v663h-162zM137 0l1024 1436h332l-1024 -1436h-332zM1087 733q187 131 375 131q136 0 223 -62.5t87 -164.5q0 -122 -170 -285l-168 -168h360v-184h-678v154l318 315q77 84 77 135q0 31 -23.5 48.5t-64.5 17.5q-106 0 -241 -109z" />
<glyph unicode="&#xbe;" horiz-adv-x="1925" d="M10 676l101 182q98 -110 221 -110q58 0 90.5 26.5t32.5 73.5t-32.5 71.5t-92.5 24.5h-148v125l193 188h-322v175h604v-138l-213 -202l41 -9q96 -16 154.5 -77t58.5 -156q0 -124 -94.5 -202.5t-251.5 -78.5q-94 0 -187 29.5t-155 77.5zM260 0l1024 1436h332l-1024 -1436 h-332zM1124 178v162l275 514h239l-260 -504h170v182h232v-182h118v-172h-118v-178h-232v178h-424z" />
<glyph unicode="&#xbf;" horiz-adv-x="966" d="M51 20q0 63 17.5 117.5t45.5 94t61.5 75t67 69t61.5 67.5t45.5 77.5t17.5 93.5h264q0 -64 -14 -118t-36.5 -91.5t-49.5 -70t-54 -61t-49.5 -56.5t-36.5 -64t-14 -77q0 -131 149 -131q156 0 162 186l273 -2q-3 -220 -126.5 -342.5t-340.5 -122.5q-206 0 -324.5 93 t-118.5 263zM332 948q0 76 48.5 124t123.5 48q74 0 122 -48t48 -124q0 -75 -48 -122.5t-122 -47.5q-75 0 -123.5 47.5t-48.5 122.5z" />
<glyph unicode="&#xc0;" horiz-adv-x="1576" d="M-10 0l618 1434h375l604 -1434h-389l-102 264h-627l-104 -264h-375zM432 1790l320 113l217 -344h-271zM575 541h414l-205 530z" />
<glyph unicode="&#xc1;" horiz-adv-x="1576" d="M-10 0l618 1434h375l604 -1434h-389l-102 264h-627l-104 -264h-375zM575 541h414l-205 530zM612 1559l217 344l320 -113l-266 -231h-271z" />
<glyph unicode="&#xc2;" horiz-adv-x="1576" d="M-10 0l618 1434h375l604 -1434h-389l-102 264h-627l-104 -264h-375zM416 1579l231 309h283l231 -309h-254l-119 174l-118 -174h-254zM575 541h414l-205 530z" />
<glyph unicode="&#xc3;" horiz-adv-x="1576" d="M-10 0l618 1434h375l604 -1434h-389l-102 264h-627l-104 -264h-375zM424 1602q0 319 215 319q41 0 79.5 -15t62 -33t49.5 -33t44 -15q64 0 64 86h215q0 -318 -213 -318q-42 0 -81 15t-63 33.5t-49.5 33.5t-44.5 15q-61 0 -61 -88h-217zM575 541h414l-205 530z" />
<glyph unicode="&#xc4;" horiz-adv-x="1576" d="M-10 0l618 1434h375l604 -1434h-389l-102 264h-627l-104 -264h-375zM432 1745q0 70 45.5 115t114.5 45t114.5 -45t45.5 -115q0 -69 -45.5 -113.5t-114.5 -44.5t-114.5 44.5t-45.5 113.5zM575 541h414l-205 530zM827 1745q0 70 45.5 115t114.5 45t114.5 -45t45.5 -115 q0 -69 -45.5 -113.5t-114.5 -44.5t-114.5 44.5t-45.5 113.5z" />
<glyph unicode="&#xc5;" horiz-adv-x="1576" d="M-10 0l604 1403q-62 72 -62 170q0 107 77 183.5t186 76.5q110 0 187 -76t77 -184q0 -100 -64 -170l592 -1403h-389l-102 264h-627l-104 -264h-375zM575 541h414l-205 530zM684 1573q0 -46 32.5 -78.5t78.5 -32.5q47 0 79.5 32.5t32.5 78.5t-32.5 78t-79.5 32 q-46 0 -78.5 -32t-32.5 -78z" />
<glyph unicode="&#xc6;" horiz-adv-x="2256" d="M-10 0l815 1434h215v2h1122v-289h-760v-285h686v-284h-686v-291h783v-287h-1145v303h-492l-159 -303h-379zM668 565h352v590h-41z" />
<glyph unicode="&#xc7;" horiz-adv-x="1417" d="M49 721q0 204 100 370t275.5 260.5t390.5 94.5q159 0 314.5 -65.5t263.5 -176.5l-211 -250q-70 86 -168 136.5t-193 50.5q-170 0 -284.5 -119.5t-114.5 -296.5q0 -180 114.5 -301t284.5 -121q90 0 188 45.5t173 122.5l213 -225q-97 -100 -227 -167t-265 -87l-49 -96 q64 -18 101.5 -61t37.5 -105q0 -96 -71 -153.5t-185 -57.5q-102 0 -194 63l65 146q44 -41 101 -41q39 0 62.5 21.5t23.5 53.5t-25.5 53t-69.5 21q-23 0 -73 -8l78 162q-141 16 -263 78.5t-208.5 158t-135.5 223.5t-49 271z" />
<glyph unicode="&#xc8;" horiz-adv-x="1380" d="M143 0v1434h1123v-287h-758v-285h684v-287h-684v-288h780v-287h-1145zM352 1790l320 113l217 -344h-271z" />
<glyph unicode="&#xc9;" horiz-adv-x="1380" d="M143 0v1434h1123v-287h-758v-285h684v-287h-684v-288h780v-287h-1145zM532 1559l218 344l319 -113l-266 -231h-271z" />
<glyph unicode="&#xca;" horiz-adv-x="1380" d="M143 0v1434h1123v-287h-758v-285h684v-287h-684v-288h780v-287h-1145zM336 1579l231 309h283l231 -309h-254l-118 174l-119 -174h-254z" />
<glyph unicode="&#xcb;" horiz-adv-x="1380" d="M143 0v1434h1123v-287h-758v-285h684v-287h-684v-288h780v-287h-1145zM352 1745q0 70 45.5 115t114.5 45t114.5 -45t45.5 -115q0 -69 -45.5 -113.5t-114.5 -44.5t-114.5 44.5t-45.5 113.5zM748 1745q0 70 45 115t114 45t114.5 -45t45.5 -115q0 -69 -45.5 -113.5 t-114.5 -44.5t-114 44.5t-45 113.5z" />
<glyph unicode="&#xcc;" horiz-adv-x="651" d="M-31 1790l320 113l217 -344h-270zM143 0v1434h365v-1434h-365z" />
<glyph unicode="&#xcd;" horiz-adv-x="651" d="M143 0v1434h365v-1434h-365zM147 1559l218 344l319 -113l-266 -231h-271z" />
<glyph unicode="&#xce;" horiz-adv-x="651" d="M-47 1579l231 309h283l231 -309h-254l-118 174l-119 -174h-254zM143 0v1434h365v-1434h-365z" />
<glyph unicode="&#xcf;" horiz-adv-x="651" d="M-31 1745q0 70 45.5 115t114.5 45t114.5 -45t45.5 -115q0 -69 -45.5 -113.5t-114.5 -44.5t-114.5 44.5t-45.5 113.5zM143 0v1434h365v-1434h-365zM365 1745q0 70 45 115t114 45t114.5 -45t45.5 -115q0 -69 -45.5 -113.5t-114.5 -44.5t-114 44.5t-45 113.5z" />
<glyph unicode="&#xd0;" horiz-adv-x="1636" d="M0 623v192h209v619h616q223 0 396.5 -90t269.5 -253t96 -374q0 -318 -215.5 -517.5t-560.5 -199.5h-602v623h-209zM571 291h263q168 0 275.5 118t107.5 306q0 189 -113 308.5t-287 119.5h-246v-328h326v-192h-326v-332z" />
<glyph unicode="&#xd1;" horiz-adv-x="1609" d="M143 0v1434h322l661 -885v885h340v-1434h-321l-660 883v-883h-342zM440 1602q0 319 215 319q41 0 79.5 -15t62.5 -33t50 -33t44 -15q63 0 63 86h215q0 -318 -213 -318q-42 0 -81 15t-62.5 33.5t-49 33.5t-44.5 15q-62 0 -62 -88h-217z" />
<glyph unicode="&#xd2;" horiz-adv-x="1648" d="M49 719q0 124 37.5 236t108 201t165 154.5t213.5 100.5t250 35q164 0 308 -55.5t247 -151.5t162 -231t59 -289t-59.5 -290.5t-162 -234t-246.5 -154t-308 -56.5q-163 0 -307 56t-246.5 153.5t-161.5 234t-59 291.5zM422 717q0 -180 119.5 -304t285.5 -124t282 123.5 t116 304.5q0 180 -115.5 302t-282.5 122q-168 0 -286.5 -122t-118.5 -302zM453 1790l319 113l217 -344h-270z" />
<glyph unicode="&#xd3;" horiz-adv-x="1648" d="M49 719q0 124 37.5 236t108 201t165 154.5t213.5 100.5t250 35q164 0 308 -55.5t247 -151.5t162 -231t59 -289t-59.5 -290.5t-162 -234t-246.5 -154t-308 -56.5q-163 0 -307 56t-246.5 153.5t-161.5 234t-59 291.5zM422 717q0 -180 119.5 -304t285.5 -124t282 123.5 t116 304.5q0 180 -115.5 302t-282.5 122q-168 0 -286.5 -122t-118.5 -302zM631 1559l217 344l319 -113l-266 -231h-270z" />
<glyph unicode="&#xd4;" horiz-adv-x="1648" d="M49 719q0 124 37.5 236t108 201t165 154.5t213.5 100.5t250 35q164 0 308 -55.5t247 -151.5t162 -231t59 -289t-59.5 -290.5t-162 -234t-246.5 -154t-308 -56.5q-163 0 -307 56t-246.5 153.5t-161.5 234t-59 291.5zM422 717q0 -180 119.5 -304t285.5 -124t282 123.5 t116 304.5q0 180 -115.5 302t-282.5 122q-168 0 -286.5 -122t-118.5 -302zM436 1579l232 309h282l232 -309h-254l-119 174l-119 -174h-254z" />
<glyph unicode="&#xd5;" horiz-adv-x="1648" d="M49 719q0 124 37.5 236t108 201t165 154.5t213.5 100.5t250 35q164 0 308 -55.5t247 -151.5t162 -231t59 -289t-59.5 -290.5t-162 -234t-246.5 -154t-308 -56.5q-163 0 -307 56t-246.5 153.5t-161.5 234t-59 291.5zM422 717q0 -180 119.5 -304t285.5 -124t282 123.5 t116 304.5q0 180 -115.5 302t-282.5 122q-168 0 -286.5 -122t-118.5 -302zM444 1602q0 319 215 319q41 0 79.5 -15t62.5 -33t50 -33t44 -15q63 0 63 86h216q0 -318 -213 -318q-42 0 -81 15t-63 33.5t-49.5 33.5t-44.5 15q-61 0 -61 -88h-218z" />
<glyph unicode="&#xd6;" horiz-adv-x="1648" d="M49 719q0 124 37.5 236t108 201t165 154.5t213.5 100.5t250 35q164 0 308 -55.5t247 -151.5t162 -231t59 -289t-59.5 -290.5t-162 -234t-246.5 -154t-308 -56.5q-163 0 -307 56t-246.5 153.5t-161.5 234t-59 291.5zM422 717q0 -180 119.5 -304t285.5 -124t282 123.5 t116 304.5q0 180 -115.5 302t-282.5 122q-168 0 -286.5 -122t-118.5 -302zM453 1745q0 70 45 115t114 45t114.5 -45t45.5 -115q0 -69 -45.5 -113.5t-114.5 -44.5t-114 44.5t-45 113.5zM848 1745q0 70 45.5 115t114.5 45t114 -45t45 -115q0 -69 -45 -113.5t-114 -44.5 t-114.5 44.5t-45.5 113.5z" />
<glyph unicode="&#xd7;" horiz-adv-x="1044" d="M121 426l244 244l-244 241l158 158l243 -242l242 242l158 -158l-242 -241l242 -244l-158 -158l-242 244l-243 -244z" />
<glyph unicode="&#xd8;" horiz-adv-x="1648" d="M49 719q0 124 37.5 236t108 201t165 154.5t213.5 100.5t250 35q65 0 117 -8l76 219h205l-93 -264q215 -80 343 -261t128 -413q0 -154 -59.5 -290.5t-162 -234t-246.5 -154t-308 -56.5q-97 0 -182 18l-82 -233h-205l105 297q-189 91 -299.5 263.5t-110.5 389.5zM422 717 q0 -99 40 -185.5t109 -146.5l265 756h-9q-168 0 -286.5 -122t-118.5 -302zM745 297q54 -8 82 -8q166 0 282 123.5t116 304.5q0 121 -54.5 219.5t-148.5 153.5z" />
<glyph unicode="&#xd9;" horiz-adv-x="1552" d="M119 602v832h364v-832q0 -144 83 -228.5t216 -84.5q130 0 209.5 84t79.5 229v832h363v-832q0 -284 -176.5 -451t-477.5 -167q-303 0 -482 167t-179 451zM420 1790l319 113l217 -344h-270z" />
<glyph unicode="&#xda;" horiz-adv-x="1552" d="M119 602v832h364v-832q0 -144 83 -228.5t216 -84.5q130 0 209.5 84t79.5 229v832h363v-832q0 -284 -176.5 -451t-477.5 -167q-303 0 -482 167t-179 451zM600 1559l217 344l320 -113l-267 -231h-270z" />
<glyph unicode="&#xdb;" horiz-adv-x="1552" d="M119 602v832h364v-832q0 -144 83 -228.5t216 -84.5q130 0 209.5 84t79.5 229v832h363v-832q0 -284 -176.5 -451t-477.5 -167q-303 0 -482 167t-179 451zM406 1579l231 309h283l231 -309h-254l-119 174l-119 -174h-253z" />
<glyph unicode="&#xdc;" horiz-adv-x="1552" d="M119 602v832h364v-832q0 -144 83 -228.5t216 -84.5q130 0 209.5 84t79.5 229v832h363v-832q0 -284 -176.5 -451t-477.5 -167q-303 0 -482 167t-179 451zM422 1745q0 70 45.5 115t114.5 45t114 -45t45 -115q0 -69 -45 -113.5t-114 -44.5t-114.5 44.5t-45.5 113.5z M817 1745q0 70 45.5 115t114.5 45t114.5 -45t45.5 -115q0 -69 -45.5 -113.5t-114.5 -44.5t-114.5 44.5t-45.5 113.5z" />
<glyph unicode="&#xdd;" horiz-adv-x="1392" d="M-10 1434h364l346 -625l338 625h365l-520 -971v-463h-363v453zM518 1559l217 344l320 -113l-267 -231h-270z" />
<glyph unicode="&#xde;" horiz-adv-x="1411" d="M143 0v1434h365v-189h250q284 0 445 -131.5t161 -361.5q0 -244 -161 -383.5t-445 -139.5h-250v-229h-365zM508 508h235q120 0 184 60t64 173q0 108 -64.5 167t-183.5 59h-235v-459z" />
<glyph unicode="&#xdf;" horiz-adv-x="1355" d="M119 0v1008q0 242 149.5 385t405.5 143q238 0 383 -112t145 -298q0 -107 -53.5 -199.5t-142.5 -142.5q128 -35 205 -126t77 -220q0 -197 -155.5 -317.5t-413.5 -120.5h-101v252h84q116 0 180 50t64 138q0 90 -70 137.5t-198 47.5h-37v249q106 0 162.5 52t56.5 149 q0 94 -48 144.5t-136 50.5q-98 0 -151.5 -62t-53.5 -176v-1032h-352z" />
<glyph unicode="&#xe0;" d="M55 330q0 158 110 245.5t314 88.5h291v16q0 83 -54.5 128.5t-160.5 45.5q-148 0 -330 -92l-100 233q269 125 512 125q227 0 353 -105.5t128 -293.5v-721h-346v127q-110 -143 -338 -143q-175 0 -277 95.5t-102 250.5zM256 1460l319 113l218 -344h-271zM387 354 q0 -60 41.5 -95.5t114.5 -35.5q83 0 146.5 42.5t80.5 109.5v98h-223q-160 0 -160 -119z" />
<glyph unicode="&#xe1;" d="M55 330q0 158 110 245.5t314 88.5h291v16q0 83 -54.5 128.5t-160.5 45.5q-148 0 -330 -92l-100 233q269 125 512 125q227 0 353 -105.5t128 -293.5v-721h-346v127q-110 -143 -338 -143q-175 0 -277 95.5t-102 250.5zM387 354q0 -60 41.5 -95.5t114.5 -35.5 q83 0 146.5 42.5t80.5 109.5v98h-223q-160 0 -160 -119zM436 1229l217 344l320 -113l-266 -231h-271z" />
<glyph unicode="&#xe2;" d="M55 330q0 158 110 245.5t314 88.5h291v16q0 83 -54.5 128.5t-160.5 45.5q-148 0 -330 -92l-100 233q269 125 512 125q227 0 353 -105.5t128 -293.5v-721h-346v127q-110 -143 -338 -143q-175 0 -277 95.5t-102 250.5zM240 1249l231 310h283l231 -310h-254l-119 174 l-118 -174h-254zM387 354q0 -60 41.5 -95.5t114.5 -35.5q83 0 146.5 42.5t80.5 109.5v98h-223q-160 0 -160 -119z" />
<glyph unicode="&#xe3;" d="M55 330q0 158 110 245.5t314 88.5h291v16q0 83 -54.5 128.5t-160.5 45.5q-148 0 -330 -92l-100 233q269 125 512 125q227 0 353 -105.5t128 -293.5v-721h-346v127q-110 -143 -338 -143q-175 0 -277 95.5t-102 250.5zM248 1272q0 319 215 319q41 0 79.5 -15t62 -33 t49.5 -33t44 -15q64 0 64 86h215q0 -161 -52.5 -239t-160.5 -78q-54 0 -100.5 24t-80.5 48t-57 24q-61 0 -61 -88h-217zM387 354q0 -60 41.5 -95.5t114.5 -35.5q83 0 146.5 42.5t80.5 109.5v98h-223q-160 0 -160 -119z" />
<glyph unicode="&#xe4;" d="M55 330q0 158 110 245.5t314 88.5h291v16q0 83 -54.5 128.5t-160.5 45.5q-148 0 -330 -92l-100 233q269 125 512 125q227 0 353 -105.5t128 -293.5v-721h-346v127q-110 -143 -338 -143q-175 0 -277 95.5t-102 250.5zM256 1415q0 70 45.5 115t114.5 45t114 -45t45 -115 q0 -69 -45 -113.5t-114 -44.5t-114.5 44.5t-45.5 113.5zM387 354q0 -60 41.5 -95.5t114.5 -35.5q83 0 146.5 42.5t80.5 109.5v98h-223q-160 0 -160 -119zM651 1415q0 70 45.5 115t114.5 45t114.5 -45t45.5 -115q0 -69 -45.5 -113.5t-114.5 -44.5t-114.5 44.5t-45.5 113.5z " />
<glyph unicode="&#xe5;" d="M55 330q0 158 110 245.5t314 88.5h291v16q0 83 -54.5 128.5t-160.5 45.5q-148 0 -330 -92l-100 233q269 125 512 125q227 0 353 -105.5t128 -293.5v-721h-346v127q-110 -143 -338 -143q-175 0 -277 95.5t-102 250.5zM365 1421q0 101 72.5 173.5t174.5 72.5 q103 0 175.5 -72.5t72.5 -173.5t-72.5 -173t-175.5 -72t-175 72t-72 173zM387 354q0 -60 41.5 -95.5t114.5 -35.5q83 0 146.5 42.5t80.5 109.5v98h-223q-160 0 -160 -119zM504 1421q0 -44 32 -75t76 -31q45 0 77 31t32 75q0 43 -32.5 75t-76.5 32t-76 -32t-32 -75z" />
<glyph unicode="&#xe6;" horiz-adv-x="1978" d="M55 326q0 155 110.5 238t315.5 85h295v31q0 83 -56 128.5t-161 45.5q-157 0 -352 -92l-82 237q277 121 514 121q243 0 373 -121q135 117 346 117q274 0 429.5 -175t141.5 -466h-794q22 -105 91 -164t171 -59q153 0 266 113l186 -183q-178 -194 -483 -194 q-157 0 -273.5 60t-183.5 171q-65 -115 -180 -175t-272 -60q-186 0 -294 93.5t-108 248.5zM387 354q0 -64 43 -102.5t115 -38.5q155 0 231 141v127h-223q-79 0 -122.5 -33t-43.5 -94zM850 332l10 -8v6zM1130 645h445q0 102 -59.5 168t-155.5 66q-90 0 -151 -64.5t-79 -169.5 z" />
<glyph unicode="&#xe7;" horiz-adv-x="1150" d="M49 549q0 255 158.5 411t415.5 156q164 0 291.5 -64.5t199.5 -183.5l-254 -153q-81 114 -223 114q-103 0 -167 -77t-64 -201q0 -127 64 -204t167 -77q155 0 225 125l258 -151q-57 -102 -156.5 -165.5t-232.5 -82.5l-51 -100q64 -18 101.5 -61t37.5 -105q0 -96 -71 -153.5 t-185 -57.5q-102 0 -194 63l65 146q44 -41 101 -41q39 0 62.5 21.5t23.5 53.5t-25.5 53t-69.5 21q-23 0 -73 -8l79 166q-221 26 -352 176t-131 379z" />
<glyph unicode="&#xe8;" horiz-adv-x="1232" d="M49 549q0 256 159.5 411.5t416.5 155.5q288 0 432 -176t125 -483h-776q26 -98 94 -151.5t166 -53.5q151 0 264 113l186 -183q-178 -194 -481 -194q-268 0 -427 153.5t-159 407.5zM260 1460l320 113l217 -344h-271zM399 647h443q0 101 -58.5 162t-154.5 61 q-91 0 -151.5 -60.5t-78.5 -162.5z" />
<glyph unicode="&#xe9;" horiz-adv-x="1232" d="M49 549q0 256 159.5 411.5t416.5 155.5q288 0 432 -176t125 -483h-776q26 -98 94 -151.5t166 -53.5q151 0 264 113l186 -183q-178 -194 -481 -194q-268 0 -427 153.5t-159 407.5zM399 647h443q0 101 -58.5 162t-154.5 61q-91 0 -151.5 -60.5t-78.5 -162.5zM438 1229 l217 344l320 -113l-266 -231h-271z" />
<glyph unicode="&#xea;" horiz-adv-x="1232" d="M49 549q0 256 159.5 411.5t416.5 155.5q288 0 432 -176t125 -483h-776q26 -98 94 -151.5t166 -53.5q151 0 264 113l186 -183q-178 -194 -481 -194q-268 0 -427 153.5t-159 407.5zM244 1247l231 309h283l231 -309h-254l-119 174l-118 -174h-254zM399 647h443 q0 101 -58.5 162t-154.5 61q-91 0 -151.5 -60.5t-78.5 -162.5z" />
<glyph unicode="&#xeb;" horiz-adv-x="1232" d="M49 549q0 256 159.5 411.5t416.5 155.5q288 0 432 -176t125 -483h-776q26 -98 94 -151.5t166 -53.5q151 0 264 113l186 -183q-178 -194 -481 -194q-268 0 -427 153.5t-159 407.5zM260 1415q0 70 45.5 115t114.5 45t114.5 -45t45.5 -115q0 -69 -45.5 -113.5t-114.5 -44.5 t-114.5 44.5t-45.5 113.5zM399 647h443q0 101 -58.5 162t-154.5 61q-91 0 -151.5 -60.5t-78.5 -162.5zM655 1415q0 70 45.5 115t114.5 45t114.5 -45t45.5 -115q0 -69 -45.5 -113.5t-114.5 -44.5t-114.5 44.5t-45.5 113.5z" />
<glyph unicode="&#xec;" horiz-adv-x="636" d="M-37 1460l320 113l217 -344h-271zM141 0v1104h353v-1104h-353z" />
<glyph unicode="&#xed;" horiz-adv-x="636" d="M141 0v1104h353v-1104h-353zM141 1229l217 344l320 -113l-266 -231h-271z" />
<glyph unicode="&#xee;" horiz-adv-x="636" d="M-53 1249l231 310h283l231 -310h-254l-119 174l-118 -174h-254zM141 0v1104h353v-1104h-353z" />
<glyph unicode="&#xef;" horiz-adv-x="636" d="M-37 1415q0 70 45.5 115t114.5 45t114.5 -45t45.5 -115q0 -69 -45.5 -113.5t-114.5 -44.5t-114.5 44.5t-45.5 113.5zM141 0v1104h353v-1104h-353zM358 1415q0 70 45.5 115t114.5 45t114.5 -45t45.5 -115q0 -69 -45.5 -113.5t-114.5 -44.5t-114.5 44.5t-45.5 113.5z" />
<glyph unicode="&#xf0;" horiz-adv-x="1236" d="M45 463q0 204 126.5 326t338.5 122q102 0 191.5 -33t138.5 -90q-56 165 -219 322l-334 -111l-54 164l232 78q-128 90 -256 150l237 143q190 -76 332 -188l293 98l55 -164l-200 -68q126 -137 194 -298.5t68 -331.5q0 -272 -165.5 -435t-442.5 -163q-243 0 -389 130.5 t-146 348.5zM383 479q0 -92 58 -147.5t153 -55.5q100 0 158.5 54t58.5 145t-59 146t-158 55q-97 0 -154 -53t-57 -144z" />
<glyph unicode="&#xf1;" horiz-adv-x="1378" d="M141 0v1104h355v-180q117 193 368 196q183 0 293.5 -115.5t110.5 -308.5v-696h-353v598q0 97 -52.5 153t-141.5 56q-95 0 -154.5 -61.5t-70.5 -161.5v-584h-355zM358 1272q0 319 215 319q41 0 79.5 -15t62.5 -33t50 -33t44 -15q63 0 63 86h215q0 -161 -52.5 -239 t-160.5 -78q-42 0 -81 15t-62.5 33t-49 33t-44.5 15q-62 0 -62 -88h-217z" />
<glyph unicode="&#xf2;" horiz-adv-x="1304" d="M49 553q0 255 166 409t438 154q271 0 436.5 -154.5t165.5 -408.5q0 -255 -166 -410t-436 -155q-272 0 -438 155t-166 410zM297 1460l319 113l218 -344h-271zM406 549q0 -129 68.5 -208t178.5 -79q109 0 177.5 79.5t68.5 207.5q0 127 -68.5 207t-177.5 80 q-110 0 -178.5 -79.5t-68.5 -207.5z" />
<glyph unicode="&#xf3;" horiz-adv-x="1304" d="M49 553q0 255 166 409t438 154q271 0 436.5 -154.5t165.5 -408.5q0 -255 -166 -410t-436 -155q-272 0 -438 155t-166 410zM406 549q0 -129 68.5 -208t178.5 -79q109 0 177.5 79.5t68.5 207.5q0 127 -68.5 207t-177.5 80q-110 0 -178.5 -79.5t-68.5 -207.5zM475 1229 l217 344l320 -113l-267 -231h-270z" />
<glyph unicode="&#xf4;" horiz-adv-x="1304" d="M49 553q0 255 166 409t438 154q271 0 436.5 -154.5t165.5 -408.5q0 -255 -166 -410t-436 -155q-272 0 -438 155t-166 410zM281 1247l231 309h283l231 -309h-254l-119 174l-118 -174h-254zM406 549q0 -129 68.5 -208t178.5 -79q109 0 177.5 79.5t68.5 207.5 q0 127 -68.5 207t-177.5 80q-110 0 -178.5 -79.5t-68.5 -207.5z" />
<glyph unicode="&#xf5;" horiz-adv-x="1304" d="M49 553q0 255 166 409t438 154q271 0 436.5 -154.5t165.5 -408.5q0 -255 -166 -410t-436 -155q-272 0 -438 155t-166 410zM287 1272q0 319 215 319q41 0 79.5 -15t62 -33t49.5 -33t44 -15q64 0 64 86h215q0 -161 -52.5 -239t-160.5 -78q-54 0 -100.5 24t-80.5 48t-57 24 q-61 0 -61 -88h-217zM406 549q0 -129 68.5 -208t178.5 -79q109 0 177.5 79.5t68.5 207.5q0 127 -68.5 207t-177.5 80q-110 0 -178.5 -79.5t-68.5 -207.5z" />
<glyph unicode="&#xf6;" horiz-adv-x="1304" d="M49 553q0 255 166 409t438 154q271 0 436.5 -154.5t165.5 -408.5q0 -255 -166 -410t-436 -155q-272 0 -438 155t-166 410zM297 1415q0 70 45.5 115t114.5 45t114 -45t45 -115q0 -69 -45 -113.5t-114 -44.5t-114.5 44.5t-45.5 113.5zM406 549q0 -129 68.5 -208t178.5 -79 q109 0 177.5 79.5t68.5 207.5q0 127 -68.5 207t-177.5 80q-110 0 -178.5 -79.5t-68.5 -207.5zM692 1415q0 70 45.5 115t114.5 45t114.5 -45t45.5 -115q0 -69 -45.5 -113.5t-114.5 -44.5t-114.5 44.5t-45.5 113.5z" />
<glyph unicode="&#xf7;" horiz-adv-x="1044" d="M68 557v223h909v-223h-909zM346 305q0 69 45.5 114.5t114.5 45.5q70 0 115 -45.5t45 -114.5t-45 -114.5t-115 -45.5q-69 0 -114.5 45.5t-45.5 114.5zM346 1036q0 70 45.5 115t114.5 45q70 0 115 -45t45 -115q0 -69 -45 -113t-115 -44q-69 0 -114.5 44t-45.5 113z" />
<glyph unicode="&#xf8;" horiz-adv-x="1304" d="M49 553q0 255 166 409t438 154q57 0 109 -6l86 264h145l-96 -297q167 -59 262.5 -196.5t95.5 -327.5q0 -255 -166 -410t-436 -155q-55 0 -108 6l-92 -285h-146l103 318q-169 59 -265 197.5t-96 328.5zM383 549q0 -87 29 -155.5t82 -108.5l188 577l-29 2 q-121 0 -195.5 -87t-74.5 -228zM623 236l30 -3q120 0 194.5 87t74.5 229q0 174 -111 264z" />
<glyph unicode="&#xf9;" horiz-adv-x="1357" d="M109 408v696h354v-596q0 -98 49.5 -154.5t134.5 -56.5q99 1 157 74t58 188v545h355v-1104h-355v182q-114 -196 -358 -196q-180 0 -287.5 114.5t-107.5 307.5zM313 1460l320 113l217 -344h-270z" />
<glyph unicode="&#xfa;" horiz-adv-x="1357" d="M109 408v696h354v-596q0 -98 49.5 -154.5t134.5 -56.5q99 1 157 74t58 188v545h355v-1104h-355v182q-114 -196 -358 -196q-180 0 -287.5 114.5t-107.5 307.5zM492 1229l217 344l319 -113l-266 -231h-270z" />
<glyph unicode="&#xfb;" horiz-adv-x="1357" d="M109 408v696h354v-596q0 -98 49.5 -154.5t134.5 -56.5q99 1 157 74t58 188v545h355v-1104h-355v182q-114 -196 -358 -196q-180 0 -287.5 114.5t-107.5 307.5zM297 1249l231 310h283l231 -310h-254l-118 174l-119 -174h-254z" />
<glyph unicode="&#xfc;" horiz-adv-x="1357" d="M109 408v696h354v-596q0 -98 49.5 -154.5t134.5 -56.5q99 1 157 74t58 188v545h355v-1104h-355v182q-114 -196 -358 -196q-180 0 -287.5 114.5t-107.5 307.5zM313 1415q0 70 45.5 115t114.5 45t114.5 -45t45.5 -115q0 -69 -45.5 -113.5t-114.5 -44.5t-114.5 44.5 t-45.5 113.5zM709 1415q0 70 45 115t114 45t114.5 -45t45.5 -115q0 -69 -45.5 -113.5t-114.5 -44.5t-114 44.5t-45 113.5z" />
<glyph unicode="&#xfd;" horiz-adv-x="1187" d="M-25 1104h365l270 -733l240 733h352l-477 -1219q-122 -299 -426 -299q-176 0 -322 113l148 242q75 -60 145 -60q95 0 138 88l26 56zM418 1229l217 344l319 -113l-266 -231h-270z" />
<glyph unicode="&#xfe;" horiz-adv-x="1402" d="M152 -397v1917h354v-562q123 158 330 158q233 0 375.5 -156.5t142.5 -412.5q0 -252 -139.5 -405.5t-370.5 -153.5q-216 0 -338 159v-544h-354zM506 557q0 -129 68 -209t176 -80q110 0 178.5 80.5t68.5 208.5q0 126 -68.5 206.5t-178.5 80.5q-107 0 -175.5 -80.5 t-68.5 -206.5z" />
<glyph unicode="&#xff;" horiz-adv-x="1187" d="M-25 1104h365l270 -733l240 733h352l-477 -1219q-122 -299 -426 -299q-176 0 -322 113l148 242q75 -60 145 -60q95 0 138 88l26 56zM240 1415q0 70 45 115t114 45t114.5 -45t45.5 -115q0 -69 -45.5 -113.5t-114.5 -44.5t-114 44.5t-45 113.5zM635 1415q0 70 45.5 115 t114.5 45t114 -45t45 -115q0 -69 -45 -113.5t-114 -44.5t-114.5 44.5t-45.5 113.5z" />
<glyph unicode="&#x152;" horiz-adv-x="2279" d="M49 715q0 151 59 285t161 229.5t245.5 151t306.5 55.5h1346v-289h-760v-285h684v-284h-684v-291h780v-287h-1366q-162 0 -305 54.5t-245.5 149t-162 227.5t-59.5 284zM422 713q0 -180 114.5 -300t286.5 -120l219 2v840h-219q-172 0 -286.5 -120.5t-114.5 -301.5z" />
<glyph unicode="&#x153;" horiz-adv-x="2086" d="M49 553q0 255 166 409t438 154q275 0 416 -186q131 186 395 186q275 0 430.5 -175t141.5 -466h-801q23 -107 94 -165t174 -58q153 0 269 113l186 -183q-181 -194 -485 -194q-271 0 -406 184q-142 -184 -414 -184t-438 155t-166 410zM406 549q0 -129 68.5 -208t178.5 -79 q109 0 177.5 79.5t68.5 207.5q0 127 -68.5 207t-177.5 80q-110 0 -178.5 -79.5t-68.5 -207.5zM1233 645h450q0 102 -60.5 168t-156.5 66q-92 0 -153.5 -64.5t-79.5 -169.5z" />
<glyph unicode="&#x178;" horiz-adv-x="1392" d="M-10 1434h364l346 -625l338 625h365l-520 -971v-463h-363v453zM340 1745q0 70 45.5 115t114.5 45t114 -45t45 -115q0 -69 -45 -113.5t-114 -44.5t-114.5 44.5t-45.5 113.5zM735 1745q0 70 45.5 115t114.5 45t114.5 -45t45.5 -115q0 -69 -45.5 -113.5t-114.5 -44.5 t-114.5 44.5t-45.5 113.5z" />
<glyph unicode="&#x2c6;" horiz-adv-x="716" d="M-14 1251l231 310h283l231 -310h-254l-119 174l-118 -174h-254z" />
<glyph unicode="&#x2dc;" horiz-adv-x="716" d="M-6 1272q0 319 215 319q41 0 79.5 -15t62 -33t49.5 -33t44 -15q64 0 64 86h215q0 -161 -52.5 -239t-160.5 -78q-54 0 -100.5 24t-80.5 48t-57 24q-61 0 -61 -88h-217z" />
<glyph unicode="&#x2000;" horiz-adv-x="960" />
<glyph unicode="&#x2001;" horiz-adv-x="1921" />
<glyph unicode="&#x2002;" horiz-adv-x="960" />
<glyph unicode="&#x2003;" horiz-adv-x="1921" />
<glyph unicode="&#x2004;" horiz-adv-x="640" />
<glyph unicode="&#x2005;" horiz-adv-x="480" />
<glyph unicode="&#x2006;" horiz-adv-x="320" />
<glyph unicode="&#x2007;" horiz-adv-x="320" />
<glyph unicode="&#x2008;" horiz-adv-x="240" />
<glyph unicode="&#x2009;" horiz-adv-x="384" />
<glyph unicode="&#x200a;" horiz-adv-x="106" />
<glyph unicode="&#x2010;" horiz-adv-x="765" d="M113 516v223h540v-223h-540z" />
<glyph unicode="&#x2011;" horiz-adv-x="765" d="M113 516v223h540v-223h-540z" />
<glyph unicode="&#x2012;" horiz-adv-x="765" d="M113 516v223h540v-223h-540z" />
<glyph unicode="&#x2013;" horiz-adv-x="833" d="M0 444v224h834v-224h-834z" />
<glyph unicode="&#x2014;" horiz-adv-x="1327" d="M0 444v224h1327v-224h-1327z" />
<glyph unicode="&#x2018;" horiz-adv-x="493" d="M55 1090q0 67 45 135l150 215h168l-90 -217q65 -48 65 -133q0 -73 -48 -120.5t-122 -47.5q-71 0 -119.5 44.5t-48.5 123.5z" />
<glyph unicode="&#x2019;" horiz-adv-x="493" d="M55 915l92 218q-67 47 -67 133q0 75 48 122.5t122 47.5q70 0 119 -45.5t49 -122.5q0 -70 -45 -135l-150 -218h-168z" />
<glyph unicode="&#x201a;" horiz-adv-x="493" d="M55 -197l92 220q-67 44 -67 133q0 73 48 120.5t122 47.5q71 0 119.5 -44.5t48.5 -123.5q0 -68 -45 -136l-150 -217h-168z" />
<glyph unicode="&#x201c;" horiz-adv-x="806" d="M55 1090q0 67 45 135l150 217h168l-92 -219q67 -44 67 -133q0 -73 -48 -120.5t-122 -47.5q-71 0 -119.5 44.5t-48.5 123.5zM434 1090q0 67 45 135l150 217h168l-92 -219q67 -44 67 -133q0 -73 -48 -120.5t-122 -47.5q-71 0 -119.5 44.5t-48.5 123.5z" />
<glyph unicode="&#x201d;" horiz-adv-x="843" d="M55 915l92 220q-67 44 -67 133q0 73 48 120.5t122 47.5q71 0 119.5 -44.5t48.5 -123.5q0 -67 -45 -135l-150 -218h-168zM434 915l92 220q-67 44 -67 133q0 73 48 120.5t122 47.5q71 0 119.5 -44.5t48.5 -123.5q0 -67 -45 -135l-150 -218h-168z" />
<glyph unicode="&#x201e;" horiz-adv-x="872" d="M55 -197l92 220q-67 44 -67 133q0 73 48 120.5t122 47.5q71 0 119.5 -44.5t48.5 -123.5q0 -68 -45 -136l-150 -217h-168zM434 -197l92 220q-67 44 -67 133q0 73 48 120.5t122 47.5q71 0 119.5 -44.5t48.5 -123.5q0 -68 -45 -136l-150 -217h-168z" />
<glyph unicode="&#x2022;" horiz-adv-x="669" d="M78 565q0 113 72 184.5t184 71.5q114 0 186 -71.5t72 -184.5q0 -114 -72 -187t-186 -73q-112 0 -184 73t-72 187z" />
<glyph unicode="&#x2026;" horiz-adv-x="1392" d="M78 152q0 73 47 120t119 47q74 0 121 -47t47 -120q0 -74 -47 -121t-121 -47q-72 0 -119 47.5t-47 120.5zM528 152q0 73 47 120t119 47q74 0 121 -47t47 -120q0 -74 -47 -121t-121 -47q-72 0 -119 47.5t-47 120.5zM979 152q0 73 47 120t119 47q74 0 121 -47t47 -120 q0 -74 -47.5 -121t-120.5 -47q-72 0 -119 47.5t-47 120.5z" />
<glyph unicode="&#x202f;" horiz-adv-x="384" />
<glyph unicode="&#x2039;" horiz-adv-x="575" d="M4 545l246 377h287l-218 -377l218 -377h-287z" />
<glyph unicode="&#x203a;" horiz-adv-x="585" d="M72 168l219 377l-219 377h286l246 -377l-246 -377h-286z" />
<glyph unicode="&#x205f;" horiz-adv-x="480" />
<glyph unicode="&#x20ac;" horiz-adv-x="1601" d="M57 489v154h179q-5 63 -5 78t5 72h-179v153h209q73 225 271.5 362.5t461.5 137.5q158 0 314 -65.5t262 -176.5l-209 -250q-72 87 -169 137t-193 50q-109 0 -198.5 -52.5t-141.5 -142.5h462v-153h-518q-4 -46 -4 -68q0 -41 6 -82h516v-154h-456q53 -87 141 -136.5 t193 -49.5q91 0 188 45.5t174 122.5l211 -225q-115 -120 -274.5 -191t-317.5 -71q-257 0 -452.5 139t-266.5 366h-209z" />
<glyph unicode="&#x2122;" horiz-adv-x="1851" d="M-16 1229v207h712v-207h-229v-656h-256v656h-227zM784 573v863h281l211 -473l211 473h280v-863h-229v502l-176 -418h-172l-176 418v-502h-230z" />
<glyph unicode="&#x25fc;" horiz-adv-x="1105" d="M0 0v1106h1106v-1106h-1106z" />
</font>
</defs>
</svg>
