<?xml version="1.0" standalone="no"?>
<!DOCTYPE svg PUBLIC "-//W3C//DTD SVG 1.1//EN" "http://www.w3.org/Graphics/SVG/1.1/DTD/svg11.dtd" >
<svg xmlns="http://www.w3.org/2000/svg">
<metadata></metadata>
<defs>
<font id="roboto_condenseditalic" horiz-adv-x="991" >
<font-face units-per-em="2048" ascent="1536" descent="-512" />
<missing-glyph horiz-adv-x="465" />
<glyph unicode="&#xfb01;" horiz-adv-x="983" d="M71 0l163 939h-137l25 143h136l13 94q11 81 40 151.5t77.5 122.5t116 81.5t155.5 27.5q63 -2 121 -21.5t115 -42.5l-46 -155q-42 24 -89 38.5t-97 14.5q-52 1 -90 -15t-64 -45t-41.5 -69t-22.5 -88l-14 -94h170l-25 -143h-169l-163 -939h-174zM549 0l188 1082h174 l-188 -1082h-174z" />
<glyph horiz-adv-x="0" />
<glyph unicode="&#xd;" horiz-adv-x="465" />
<glyph horiz-adv-x="0" />
<glyph horiz-adv-x="0" />
<glyph horiz-adv-x="49" />
<glyph unicode="&#x9;" horiz-adv-x="49" />
<glyph unicode=" "  horiz-adv-x="465" />
<glyph unicode="&#x09;" horiz-adv-x="465" />
<glyph unicode="&#xa0;" horiz-adv-x="465" />
<glyph unicode="!" horiz-adv-x="498" d="M63 91q2 44 28.5 76t72.5 33q23 1 41 -7.5t30.5 -23t19 -34t5.5 -41.5q-2 -43 -28.5 -73.5t-71.5 -32.5q-23 -1 -41 7t-31 22t-19.5 33t-5.5 41zM135 411l169 1045h181l-195 -1045h-155z" />
<glyph unicode="&#x22;" horiz-adv-x="645" d="M200 1041l61 382l19 121l136 -9l-23 -145l-83 -348zM462 1042l62 388l18 114l136 -9l-23 -145l-83 -348h-110z" />
<glyph unicode="#" horiz-adv-x="1090" d="M44 410l24 137h209l119 354h-206l25 139h227l140 416h135l-140 -416h194l140 416h137l-140 -416h156l-25 -139h-177l-119 -354h174l-24 -137h-195l-138 -410h-136l138 410h-195l-138 -410h-135l138 410h-188zM412 547h194l119 354h-193z" />
<glyph unicode="$" d="M80 429h173q-3 -46 0 -96t20.5 -92.5t51.5 -71t92 -29.5q54 -1 98 17.5t76 51.5t51.5 78t25.5 96q5 47 -5 86t-32 71.5t-54.5 58t-73.5 45.5q-69 33 -122.5 74t-89 92.5t-51.5 116t-10 144.5q6 78 31 145.5t68 120t104.5 87.5t139.5 48l39 220h138l-40 -223 q51 -14 88 -40.5t62.5 -63t40.5 -80t22 -90t7.5 -94.5t-2.5 -93h-171q3 40 2 92t-14.5 99.5t-44 80.5t-85.5 35q-51 1 -89.5 -19t-64.5 -54.5t-41 -78t-20 -88.5q-5 -50 5 -89.5t32.5 -72t56 -58t76.5 -46.5q68 -34 121 -74.5t88 -91.5t50.5 -115t9.5 -144 q-6 -83 -34 -151.5t-75.5 -120t-113.5 -84.5t-148 -44l-35 -192h-136l35 194q-80 16 -131.5 60.5t-80 105t-37 133t-3.5 144.5z" />
<glyph unicode="%" horiz-adv-x="1267" d="M193 1099l7 77q6 56 26 111t55 98t84.5 68.5t112.5 24.5q61 -2 104 -29t69 -70t36.5 -96t7.5 -107l-7 -77q-6 -56 -26 -110.5t-55 -97t-83.5 -68t-111.5 -24.5q-61 1 -104 28.5t-69.5 70t-37.5 95.5t-8 106zM219 184l770 1128l92 -72l-772 -1128zM320 1040.5 q2 -30.5 12.5 -57.5t30.5 -45t54 -19q35 -1 60.5 16t43 43.5t27 58.5t13.5 61l8 79q2 25 0 56.5t-12 58.5t-30 45.5t-54 19.5q-36 1 -61.5 -16t-43 -44t-27.5 -59.5t-13 -61.5l-8 -79q-2 -26 0 -56.5zM622 279l6 78q6 56 26 110.5t55 97.5t84.5 68.5t112.5 24.5 q61 -2 104 -29t69.5 -70t37 -96t7.5 -106l-7 -78q-6 -56 -26 -111t-55 -97.5t-84 -68.5t-112 -24q-61 1 -104 28.5t-69.5 70t-37 95.5t-7.5 107zM749 220q2 -31 12 -58t30 -45.5t54 -19.5q36 -1 61.5 16.5t42.5 44.5t27 59t13 61l8 80q2 26 0 57t-12 58t-30 45.5t-54 19.5 q-35 1 -61 -16.5t-43.5 -44t-27.5 -58.5t-13 -61l-7 -81q-2 -26 0 -57z" />
<glyph unicode="&#x26;" horiz-adv-x="1090" d="M67 383q6 70 32.5 127.5t67 106.5t91 91t103.5 80q-18 39 -35.5 78t-30.5 79.5t-19 82.5t-3 86q6 73 30.5 139.5t68 116.5t105 79.5t140.5 27.5q62 -2 112 -26.5t84.5 -65.5t51.5 -95t13 -114q-3 -53 -19.5 -99t-43 -86t-61.5 -75t-75 -66l-111 -85l186 -362 q35 64 56.5 130.5t32.5 138.5h152q-12 -115 -48.5 -220.5t-110.5 -197.5l128 -254h-194l-52 105q-65 -57 -144 -91.5t-167 -32.5q-86 1 -152 33.5t-110 87t-64 127t-14 154.5zM243 383q-6 -46 0.5 -91t26.5 -80t55.5 -57.5t88.5 -23.5q34 -1 65 8t59.5 24.5t54.5 36t50 41.5 l-209 421l-34 -26q-28 -24 -54.5 -52t-47.5 -60.5t-36 -68t-19 -72.5zM441 1121q-3 -29 0.5 -58t12 -57t19.5 -55.5t23 -54.5l85 66q55 42 91.5 92.5t43.5 122.5q2 27 -3.5 53.5t-19.5 47.5t-36 34.5t-53 13.5q-39 0 -68 -19.5t-49 -50t-31 -66.5t-15 -69z" />
<glyph unicode="'" horiz-adv-x="356" d="M170 1057l61 377l16 102h146l-19 -118l-76 -361h-128z" />
<glyph unicode="(" horiz-adv-x="634" d="M105.5 399.5q4.5 92.5 16.5 176.5l2 12q14 94 37.5 194.5t57.5 200t80 196t104.5 182.5t130.5 158.5t159 124.5l23 -124q-97 -89 -167 -198t-119.5 -229t-81 -247t-50.5 -254l-2 -14q-10 -69 -18.5 -149t-11 -165t3 -170.5t22.5 -166.5t48.5 -154t81.5 -131l-45 -111 q-68 61 -116.5 139t-81 166t-49.5 183.5t-23 191.5t-1.5 188.5z" />
<glyph unicode=")" horiz-adv-x="642" d="M-98 -356q97 90 167.5 200t120 231t80.5 249.5t51 255.5l2 14q10 69 18 149t10 164.5t-3.5 170.5t-23 167.5t-48.5 154.5t-79 131l45 111q68 -60 117 -138t81 -166.5t49 -184.5t22.5 -192t1 -189t-15.5 -176l-2 -11q-14 -94 -37.5 -194.5t-57.5 -200.5t-80 -196 t-104.5 -182t-130.5 -158.5t-159 -124.5z" />
<glyph unicode="*" horiz-adv-x="866" d="M99 1077l66 145l279 -113l45 347h151l-65 -344l302 107l21 -158l-313 -91l152 -274l-128 -89l-136 289l-217 -279l-115 97l236 273z" />
<glyph unicode="+" horiz-adv-x="996" d="M84 606l31 175h321l74 425h174l-74 -425h320l-31 -175h-319l-80 -460h-174l80 460h-322z" />
<glyph unicode="," horiz-adv-x="400" d="M-113 -216q52 64 90 133.5t54 150.5l26 151h177l-23 -147q-17 -109 -76 -202.5t-144 -160.5z" />
<glyph unicode="-" horiz-adv-x="503" d="M35 543l27 151h402l-27 -151h-402z" />
<glyph unicode="." horiz-adv-x="533" d="M53 94q0 49 31 81.5t80 34.5q49 1 81 -30t31 -80t-33 -79.5t-80 -32.5q-24 -1 -44.5 6.5t-35 21.5t-22.5 34t-8 44z" />
<glyph unicode="/" horiz-adv-x="746" d="M-100 -125l771 1581h152l-769 -1581h-154z" />
<glyph unicode="0" d="M104 350.5q-4 70.5 1 140.5t13 130l33 222q10 68 25 142t39 145t58.5 135t84 111.5t115 74.5t151.5 25q82 -2 137 -33t89.5 -81.5t50.5 -115t20 -134t-1 -139.5t-12 -130l-33 -221q-10 -68 -25 -143t-39 -147t-58.5 -137t-84 -114t-115.5 -77t-152 -25q-82 2 -137.5 34 t-89.5 83.5t-50 117.5t-20 136.5zM268 421.5q-2 -50.5 2 -101.5t19 -92.5t44.5 -68.5t78.5 -29q55 -3 96 19t71 60.5t50.5 88.5t33.5 102.5t21 102.5t14 89l42 283q4 30 9.5 74.5t7.5 94t-1.5 98.5t-19 89t-45.5 65.5t-79 28.5q-55 3 -96 -18.5t-70.5 -58.5t-50 -85.5 t-34 -99.5t-21.5 -100.5t-13 -88.5l-42 -283q-4 -29 -9.5 -74t-7.5 -95.5z" />
<glyph unicode="1" d="M239 1091l32 178l468 194h31l-249 -1463h-174l214 1227z" />
<glyph unicode="2" d="M19 0l22 141l463 523q38 43 78 89.5t74 97.5t58.5 105.5t31.5 114.5q5 40 1.5 84t-20 81.5t-48 62.5t-80.5 27q-65 2 -112 -23.5t-78.5 -68t-50 -97t-25.5 -109.5l-170 -1q9 91 42.5 173.5t90 144.5t135 97.5t177.5 33.5q82 -2 144.5 -32.5t103 -82t58.5 -120.5t11 -148 q-7 -75 -35 -145t-68.5 -135t-89 -124.5t-96.5 -113.5l-381 -424h579l-24 -151h-791z" />
<glyph unicode="3" d="M56 384h173q-3 -44 2 -88.5t23 -80.5t51 -59t86 -25q60 -2 105.5 21.5t76.5 63t48.5 90.5t23.5 104q5 51 -1 96.5t-27 80t-57.5 56t-92.5 23.5l-123 1l26 151l105 -2q58 0 104.5 20t80.5 55t55 82t27 103q4 43 1 87t-19.5 80t-48 59t-83.5 25q-54 1 -94.5 -20.5 t-69 -57.5t-45.5 -81.5t-24 -92.5l-169 -1q9 82 41.5 156t86 129.5t126 87.5t160.5 30q87 -2 149 -35.5t100.5 -89t53.5 -128t8 -152.5q-11 -113 -76.5 -196t-163.5 -134q47 -24 76.5 -60t45 -79.5t19 -92t-0.5 -96.5q-8 -89 -41.5 -169t-89 -139.5t-132.5 -94t-172 -31.5 q-87 2 -150 35.5t-103.5 88.5t-58 127.5t-12.5 152.5z" />
<glyph unicode="4" d="M12 338l21 119l693 999h187l-168 -967h157l-26 -151h-157l-59 -338h-173l59 338h-534zM235 489h337l126 694l-13 -20z" />
<glyph unicode="5" d="M103 384h161q1 -43 8.5 -87.5t27 -80.5t52.5 -60t85 -25q67 -2 114.5 30.5t79 83t48.5 111t23 115.5q3 30 3 65t-5 69t-16.5 66t-30.5 57t-47.5 40t-68.5 16q-31 1 -56.5 -5.5t-48.5 -18.5t-44 -29t-42 -37l-141 39l186 723h617l-30 -171h-468l-111 -398q43 29 90.5 46.5 t100.5 16.5q63 -1 110 -22.5t80.5 -57.5t54 -84t31 -101t12 -108t-3.5 -105q-6 -62 -22 -123.5t-42.5 -117t-64 -103t-85 -81.5t-106.5 -52.5t-129 -16.5q-86 2 -146.5 37t-99.5 91.5t-57.5 128.5t-18.5 149z" />
<glyph unicode="6" horiz-adv-x="990" d="M113 420q-1 62 6 118l11 87q14 102 38 203t60.5 193.5t89 172t124.5 138.5t165.5 92.5t213.5 33.5h19l-15 -157h-12q-109 1 -188 -37.5t-135 -103.5t-94 -150t-66 -177q25 28 53.5 50.5t59.5 39t65.5 25t73.5 7.5q61 -2 107 -23.5t79 -57.5t53.5 -83.5t31 -99.5 t12.5 -106t-3 -104q-6 -60 -21 -121t-40 -117t-60.5 -105t-81.5 -85t-103.5 -55.5t-126.5 -17.5q-70 2 -122.5 28.5t-89 70t-59 100t-33.5 118t-12 123.5zM284.5 464.5q-1.5 -39.5 1.5 -83t11.5 -87.5t26 -79t45.5 -58t70 -25q65 -3 111 31t76 85.5t45.5 112.5t20.5 112 q3 28 3.5 62.5t-3.5 71t-13.5 71t-27.5 61.5t-45 44.5t-65 18.5q-44 1 -82 -16t-69 -45.5t-55 -65t-40 -72.5l-7 -72q-2 -27 -3.5 -66.5z" />
<glyph unicode="7" d="M129 0l689 1304h-626l24 152h811l-18 -114l-692 -1342h-188z" />
<glyph unicode="8" d="M77 385q11 127 79 220t180 150q-34 29 -57.5 65t-37 76.5t-18 83.5t-0.5 87q6 83 36 158.5t81 132t122.5 89t160.5 30.5q82 -2 141.5 -35.5t97 -87.5t52.5 -124t9 -145q-11 -115 -72 -200t-159 -141q41 -30 69 -68.5t45 -83t23 -93t2 -97.5q-7 -88 -40.5 -166t-89 -136 t-131.5 -90.5t-169 -30.5q-86 2 -149.5 35.5t-104.5 89t-59 128t-11 153.5zM250 298.5q5 -45.5 23 -82.5t52 -61t87 -25q58 -2 102.5 22t75 63t47.5 89t22 101q4 43 -0.5 90.5t-23 86.5t-52 65t-86.5 27q-59 1 -103 -24.5t-74.5 -66.5t-47.5 -92.5t-22 -101.5 q-5 -45 0 -90.5zM394 1065q-3 -38 0.5 -79.5t19 -77t44.5 -59.5t76 -25q52 -2 90.5 21.5t65 61t41.5 84t19 90.5q4 37 0 79.5t-19.5 78.5t-44.5 60.5t-75 25.5q-52 1 -91 -22.5t-65.5 -62t-41.5 -85t-19 -90.5z" />
<glyph unicode="9" d="M155.5 862q-1.5 54 3.5 103q6 60 21 121.5t39.5 119t59.5 107.5t81.5 87t103.5 57.5t127 18.5q75 -2 128.5 -30.5t89.5 -74.5t57 -106t29.5 -125t7.5 -130.5t-8 -122.5l-9 -67q-14 -103 -37 -204t-59.5 -192.5t-88 -169t-123.5 -134.5t-166 -89.5t-215 -32.5h-18l15 156 h11q114 -2 194 34.5t136 100.5t92.5 149.5t62.5 183.5q-25 -28 -53 -52.5t-59.5 -43.5t-66.5 -29.5t-74 -9.5q-62 1 -108 23.5t-78.5 59t-52.5 85t-30.5 101t-12 106.5zM326 912.5q-1 -35.5 2.5 -72t12.5 -72.5t26 -64t43.5 -46t65.5 -19q42 -2 78 16t66 46.5t54 63.5t42 68 l10 79q3 27 5 67t0 85.5t-10 90.5t-25 82t-45 60.5t-70 25.5q-44 2 -78.5 -14t-61 -43.5t-46 -63.5t-33 -75t-21.5 -78.5t-11 -73.5q-3 -27 -4 -62.5z" />
<glyph unicode=":" horiz-adv-x="474" d="M47 94q0 49 31 81.5t80 34.5q49 1 81 -30t31 -80t-33 -79.5t-80 -32.5q-24 -1 -44.5 6.5t-35 21.5t-22.5 34t-8 44zM200 977q0 49 31 81.5t80 34.5q49 1 81 -30t31 -80t-33 -79.5t-80 -32.5q-24 -1 -44.5 6.5t-35 21.5t-22.5 34t-8 44z" />
<glyph unicode=";" horiz-adv-x="413" d="M-99 -216q52 64 90 133.5t54 150.5l26 151h177l-23 -147q-17 -109 -76 -202.5t-144 -160.5zM176 977q0 49 31 81.5t80 34.5q49 1 81 -30t31 -80t-33 -79.5t-80 -32.5q-24 -1 -44.5 6.5t-35 21.5t-22.5 34t-8 44z" />
<glyph unicode="&#x3c;" horiz-adv-x="896" d="M72 580l26 146l731 378l-37 -207l-539 -258l451 -253l-32 -186z" />
<glyph unicode="=" horiz-adv-x="962" d="M108 399l28 160h682l-29 -160h-681zM180 814l28 161h682l-29 -161h-681z" />
<glyph unicode="&#x3e;" horiz-adv-x="924" d="M60 190l36 203l571 263l-481 258l31 180l635 -379l-26 -145z" />
<glyph unicode="?" horiz-adv-x="848" d="M170 1115q9 77 39.5 144t79.5 116t116 76.5t148 25.5q79 -2 136.5 -33t93 -82t50 -117.5t7.5 -140.5q-6 -71 -32.5 -131t-65 -113t-85.5 -101.5t-95 -95.5q-53 -53 -78.5 -117t-36.5 -136l-168 -1q7 63 22 114t39 97t57.5 88.5t76.5 87.5q32 33 63 66.5t57 70t44 77.5 t24 89q4 35 2 73t-15 70t-39 53t-70 22t-77.5 -16t-58 -45.5t-40.5 -65t-23 -74.5zM213 91q2 44 27.5 75.5t71.5 33.5q23 1 41 -7.5t31 -23t19 -34t5 -41.5q-2 -43 -28.5 -74t-71.5 -32q-23 -1 -41 7t-30.5 22t-18.5 33t-5 41z" />
<glyph unicode="@" horiz-adv-x="1538" d="M66.5 271.5q4.5 105.5 21.5 201.5q18 105 53 217.5t87.5 220t122.5 203t158 167t194 112t230 38.5q123 -2 211.5 -45t147.5 -114t92 -163.5t45 -194.5t7.5 -207t-20.5 -200q-9 -54 -24.5 -115t-39 -120t-56 -112.5t-76 -94.5t-98 -64.5t-121.5 -21.5q-75 2 -120.5 44 t-55.5 115q-20 -27 -43.5 -56t-51 -52t-60 -37.5t-70.5 -14.5q-53 1 -87 23.5t-55 59t-29.5 82.5t-9.5 93.5t3.5 93t10.5 80.5q9 51 25.5 114.5t42.5 128.5t61 126.5t80.5 108.5t101 75t122.5 27q74 -2 128.5 -30.5t107.5 -77.5l-128 -555q-3 -15 -6.5 -37t-6 -47.5 t-1.5 -51t8 -46.5t22 -34.5t40 -14.5q46 -2 82 18.5t64 55t48.5 79.5t35 91.5t24 90t14.5 76.5q13 80 21 169t3 176.5t-27 167t-67 141t-118 99t-181 39.5q-107 2 -196.5 -33.5t-163 -97.5t-130.5 -145t-99.5 -176t-71 -189.5t-44.5 -185.5q-14 -74 -22 -162t-3.5 -176 t25 -171t64.5 -147t114.5 -103t174.5 -40q76 -1 149 20t139 58l22 -117q-33 -24 -71 -40.5t-78 -27t-81.5 -15t-81.5 -4.5q-124 2 -213 44.5t-148.5 113t-93 163.5t-46 195.5t-8 208zM570.5 239.5q1.5 -32.5 10.5 -59t27 -43.5t49 -18q32 -1 60 19t50.5 49.5t39 63 t24.5 58.5l4 19l122 513q-19 10 -38 16t-40 7q-51 2 -91 -20.5t-71 -61t-53 -88.5t-38 -101.5t-25.5 -99.5t-15.5 -84q-3 -18 -7.5 -46t-6.5 -59.5t-0.5 -64z" />
<glyph unicode="A" horiz-adv-x="1155" d="M-66 0l707 1456h154l203 -1456h-177l-45 380h-476l-176 -380h-190zM374 538h383l-77 660z" />
<glyph unicode="B" horiz-adv-x="1093" d="M48 0l252 1456l391 -1q177 -5 263 -104q74 -85 74 -227q0 -23 -2 -48q-5 -56 -24.5 -103t-51 -86t-73 -70t-89.5 -55q48 -21 78.5 -58t47.5 -82.5t22 -95.5q3 -28 3 -55q0 -22 -2 -43q-8 -97 -43.5 -176.5t-94.5 -135.5t-140 -86q-78 -30 -173 -30h-6h-432zM254 157 l232 -2q60 1 108 22t82.5 57.5t55.5 86t28 106.5q3 27 3 54q1 19 -1 37q-4 44 -21 79.5t-50 57.5t-87 25l-259 1zM371 835l219 -2q53 1 97 20t77 51.5t53.5 77t26.5 95.5q3 26 3 49q0 20 -2 38q-5 40 -23.5 68.5t-51.5 45.5t-83 19l-235 1z" />
<glyph unicode="C" horiz-adv-x="1136" d="M113 454v14q0 64 8 125l42 269q12 76 34.5 152t56.5 145t81 128t107 101q59 42 132 66q67 22 147 22h14q107 -2 180 -42.5t117 -107.5q44 -66 62 -154q14 -71 14 -149q0 -18 -1 -36l-180 1q1 18 1 36q0 41 -4 81q-4 58 -25 105t-62 77t-113 32h-12q-56 -1 -101 -17 q-50 -18 -90 -51t-69.5 -78.5t-50.5 -96.5t-35 -105.5t-22 -106.5l-42 -272q-6 -42 -10 -92q-2 -27 -1 -53q0 -23 1 -46q3 -50 14.5 -97t36 -83.5t63 -60t96.5 -25.5h17q69 0 119 21q56 24 94 68.5t61 105.5t38 131l176 2q-15 -105 -55.5 -195t-105 -155t-152.5 -101 q-82 -33 -185 -32h-17q-82 2 -144 29.5t-106 72.5t-72 105.5t-42 127.5t-15 139z" />
<glyph unicode="D" horiz-adv-x="1144" d="M48 0l252 1456l326 -1q130 -3 218 -54t139 -134.5t67 -191.5q8 -56 8 -114q0 -55 -7 -111l-37 -246q-20 -131 -69 -242.5t-128 -192t-188 -125.5q-107 -44 -243 -44h-6h-332zM254 157l131 -1h6q101 0 177 32q78 34 133 94t88 142.5t48 179.5l38 250q8 63 8 126 q-1 16 -1 31q-2 78 -28.5 140.5t-81.5 102.5t-151 43l-169 1z" />
<glyph unicode="E" horiz-adv-x="996" d="M48 0l252 1456h752l-28 -158h-572l-82 -468h500l-27 -157h-499l-90 -516h582l-28 -157h-760z" />
<glyph unicode="F" horiz-adv-x="964" d="M48 0l252 1456h737l-28 -158h-557l-87 -498h478l-28 -157h-477l-111 -643h-179z" />
<glyph unicode="G" horiz-adv-x="1184" d="M114 444v27q0 60 7 120l43 274q12 80 33 157t53.5 146t77 126.5t103.5 98.5t133 63q68 20 151 20h15q100 -3 173.5 -37.5t120.5 -94t69 -140.5q20 -74 20 -160v-16l-178 1q0 56 -9 107.5t-33.5 91t-66 64t-105.5 26.5h-19q-54 0 -98 -14q-51 -18 -90.5 -50t-68 -76 t-48.5 -95t-33 -106.5t-21 -109.5l-42 -277q-6 -45 -9 -96v-32q0 -35 4 -69q5 -50 19 -96t41.5 -81.5t69.5 -56.5t102 -22h11q73 0 130 23q62 26 123 73l61 336h-259l28 156h435l-84 -543q-40 -54 -91 -92.5t-109.5 -63.5t-122.5 -36q-58 -10 -118 -10h-11 q-85 1 -150.5 26.5t-113 69t-78.5 102t-47 126t-18 140.5z" />
<glyph unicode="H" horiz-adv-x="1242" d="M48 0l252 1456h179l-109 -626h568l108 626h180l-253 -1456h-179l117 673h-567l-117 -673h-179z" />
<glyph unicode="I" horiz-adv-x="507" d="M55 0l253 1456h179l-253 -1456h-179z" />
<glyph unicode="J" horiz-adv-x="970" d="M22 402h179q-1 -19 -1 -39q0 -26 2 -52q4 -46 21 -84.5t50 -63.5t87 -27h9q54 0 95 24q44 25 74.5 67t48 94.5t25.5 102.5l175 1032h180l-175 -1031q-13 -90 -46.5 -172t-89 -143.5t-132.5 -97.5q-71 -33 -161 -33h-15q-92 3 -157 37.5t-104.5 92t-54.5 133.5 q-12 55 -12 114q0 23 2 46z" />
<glyph unicode="K" horiz-adv-x="1093" d="M48 0l252 1456h179l-121 -692l144 157l466 535h228l-579 -651l350 -805h-202l-277 669l-177 -180l-84 -489h-179z" />
<glyph unicode="L" horiz-adv-x="954" d="M48 0l252 1456h180l-225 -1299h554l-28 -157h-733z" />
<glyph unicode="M" horiz-adv-x="1511" d="M48 0l252 1456h227l162 -1186l574 1186h234l-253 -1456h-179l100 576l111 541l-559 -1117h-137l-172 1140l-85 -582l-96 -558h-179z" />
<glyph unicode="N" horiz-adv-x="1240" d="M48 0l252 1456h175l374 -1135l197 1135h178l-252 -1456h-175l-373 1130l-196 -1130h-180z" />
<glyph unicode="O" horiz-adv-x="1203" d="M116 455v15q0 66 8 130l39 253q12 77 33.5 154t55 147t79.5 130t105 104q59 42 133 66q68 22 149 22h14q86 -2 150 -29t109.5 -72t73.5 -105.5t42 -129.5q15 -68 15 -142q0 -4 -1 -7q0 -70 -8 -138l-39 -252q-12 -78 -33.5 -155t-54.5 -147t-78.5 -129.5t-104.5 -101.5 t-133 -66q-68 -22 -150 -22h-14q-85 2 -149 29t-109.5 72t-74 105t-42.5 128t-15 141zM293 504q-1 -22 -1 -44q0 -29 2 -57q4 -50 17 -96t39 -82t66.5 -58.5t100.5 -24.5h13q57 0 103 16q51 18 90.5 50.5t68.5 77.5t49.5 97t33.5 107.5t21 109.5l39 257q6 47 9 97q1 23 1 46 q1 27 -1 54q-4 50 -16.5 95.5t-38.5 81t-67 57.5t-101 24h-13q-56 0 -102 -16q-50 -18 -90 -51t-69.5 -78.5t-50.5 -97t-34.5 -106.5t-21.5 -108l-38 -256q-6 -45 -9 -95z" />
<glyph unicode="P" horiz-adv-x="1111" d="M48 0l252 1456l439 -1q94 -3 164.5 -38t115.5 -93.5t65 -136.5q14 -55 13 -117q0 -25 -2 -51q-9 -104 -47 -187t-101 -141.5t-148.5 -90t-189.5 -31.5l-283 1l-99 -570h-179zM353 727l263 -2q66 0 118.5 22t90.5 61t61 92.5t31 116.5q3 26 3 50.5t-3 49.5q-6 49 -27 88 t-59 64t-96 28l-283 1z" />
<glyph unicode="Q" horiz-adv-x="1203" d="M107 458v15q0 65 8 128l39 252q11 77 33 154t55.5 147t79.5 130t105 103.5t133 66.5q68 22 149 22h14q86 -2 150.5 -29t110 -72t74 -105t42 -128.5t14.5 -142.5v-8q0 -70 -9 -138l-39 -251q-12 -79 -32.5 -155.5t-54 -145.5t-82.5 -128.5t-118 -105.5l177 -200l-132 -113 l-211 238q-30 -5 -59.5 -8t-59.5 -3q-85 1 -148.5 28t-108.5 72.5t-73.5 106t-42 129t-14.5 141.5zM285 504q-1 -21 -1 -43q0 -28 2 -57q4 -50 16.5 -96.5t38 -82.5t66 -58.5t100.5 -24.5h18q54 0 99 16q51 18 91 51t69 78t49.5 97t33.5 107.5t21 109.5l39 255q6 46 9 97 q2 25 2 50.5t-2 50.5q-3 50 -15.5 96t-38.5 81t-67 57t-102 24h-13q-56 0 -102 -16q-50 -18 -90 -51.5t-69.5 -78.5t-50.5 -96.5t-34.5 -106.5t-21.5 -108l-38 -255q-6 -45 -9 -96z" />
<glyph unicode="R" horiz-adv-x="1064" d="M48 0l252 1456l385 -1q97 -3 168 -35t116 -88t63 -134q12 -52 13 -112q0 -29 -3 -60q-13 -139 -87 -240t-201 -158l169 -615l-1 -13h-192l-149 589h-251l-103 -589h-179zM357 746l207 -2q62 1 114 22.5t90.5 59t62.5 89t31 112.5q3 29 3 56q0 23 -2 45q-5 48 -26 84.5 t-59 59t-98 25.5l-227 1z" />
<glyph unicode="S" horiz-adv-x="1039" d="M53 422h180q-1 -16 -1 -31q0 -41 8 -79q11 -52 38.5 -90.5t72.5 -61t109 -23.5h7q53 0 97 15q48 16 83 47t57.5 75.5t28.5 100.5q2 19 2 37q0 36 -9 64q-14 42 -43.5 74t-71.5 55t-91 44q-71 30 -132.5 68.5t-106.5 89.5t-69 117q-19 52 -18 115q0 16 1 33q6 90 44 165 t99 129q60 52 139 82q74 28 158 28h11q94 -2 165.5 -38t119 -96t69.5 -140q18 -65 19 -135q0 -16 -1 -32h-180q1 19 1 37q-1 35 -5 68q-8 51 -30.5 90t-63.5 63t-103 25h-6q-51 0 -95 -16q-46 -18 -80 -50.5t-54.5 -77.5t-26.5 -99q-2 -14 -1 -27q0 -36 12 -66 q16 -40 46 -70.5t70 -53.5t83 -41q76 -32 139.5 -71t107.5 -92q44 -52 66 -120q16 -51 16 -115q0 -21 -1 -42q-7 -93 -46 -167.5t-100.5 -126t-142.5 -78.5q-75 -25 -159 -25h-13q-95 2 -170.5 37t-127.5 94q-54 59 -80 139q-22 67 -22 143q0 14 1 29z" />
<glyph unicode="T" horiz-adv-x="1044" d="M178 1298l28 158h921l-28 -158h-371l-225 -1298h-179l225 1298h-371z" />
<glyph unicode="U" horiz-adv-x="1126" d="M100 430l174 1026h178l-174 -1027q-4 -34 -4 -65q0 -26 2 -48q6 -52 29 -91.5t65 -63t109 -25.5h18q60 0 107 18q54 20 92 59t61 94t33 122l174 1027h180l-175 -1025q-14 -102 -54 -186.5t-104 -144.5t-150 -92q-81 -30 -180 -30h-12q-102 2 -176.5 36.5t-121 94 t-64.5 141.5q-11 51 -11 108q0 35 4 72z" />
<glyph unicode="V" horiz-adv-x="1123" d="M177 1456h189l137 -1173l507 1173h202l-668 -1456h-156z" />
<glyph unicode="W" horiz-adv-x="1523" d="M204 1456h175l20 -1008l-7 -145l51 143l383 1010h149l61 -1024l4 -138l50 175l325 987h183l-510 -1456h-161l-70 1069v74l-29 -87l-408 -1056h-163z" />
<glyph unicode="X" horiz-adv-x="1104" d="M-33 0l499 743l-254 713h199l180 -557l353 557h219l-487 -731l257 -725h-202l-182 567l-361 -567h-221z" />
<glyph unicode="Y" horiz-adv-x="1052" d="M182 1456h194l161 -729l416 729h211l-567 -924l-92 -532h-179l97 554z" />
<glyph unicode="Z" horiz-adv-x="1048" d="M-6 0l24 153l817 1145h-632l26 158h835l-24 -150l-818 -1149h665l-25 -157h-868z" />
<glyph unicode="[" horiz-adv-x="508" d="M-10 -312l309 1976h323l-24 -152h-150l-261 -1672h150l-24 -152h-323z" />
<glyph unicode="\" horiz-adv-x="743" d="M201 1456h156l221 -1581h-155z" />
<glyph unicode="]" horiz-adv-x="508" d="M-114 -312l24 152h152l261 1672h-152l24 152h324l-309 -1976h-324z" />
<glyph unicode="^" horiz-adv-x="747" d="M85 729l371 727h116l116 -727h-150l-61 480l-226 -480h-166z" />
<glyph unicode="_" horiz-adv-x="814" d="M-108 -151l27 151h759l-27 -151h-759z" />
<glyph unicode="`" horiz-adv-x="624" d="M207 1534h205l143 -294h-143z" />
<glyph unicode="a" horiz-adv-x="962" d="M58 287q6 94 47 163.5t104.5 115.5t144.5 68.5t168 22.5h129l17 115q2 18 2 35q0 19 -2 37q-4 33 -20 56.5t-44 37t-71 13.5q-40 0 -73 -12t-58.5 -34.5t-42.5 -53.5t-24 -68l-171 -1q7 73 42 132.5t88 101.5q54 44 120 66q64 22 131 21h6q76 -1 133.5 -25.5t94.5 -68 t52 -104.5q10 -42 10 -90q0 -22 -2 -46l-88 -533q-7 -47 -7 -90v-20q2 -52 6 -109l-2 -17h-174q-6 30 -5 59t4 59q-24 -29 -51 -54.5t-57.5 -44t-65.5 -29.5t-74 -11q-69 0 -120.5 23.5t-85.5 65.5q-33 41 -49 97q-12 45 -13 95q0 13 1 27zM236 240q4 -31 18.5 -53.5 t40.5 -35t66 -12.5q35 0 66.5 9.5t60 26.5t53 40.5t44.5 50.5l45 259l-79 1q-54 0 -107 -12t-97 -37.5t-73.5 -67t-36.5 -101.5q-3 -21 -3 -39q0 -15 2 -29z" />
<glyph unicode="b" horiz-adv-x="990" d="M24 0l267 1536h172l-109 -573q24 32 52 58t60 45q32 18 68 28q33 9 70 8h8q69 -1 118 -24.5t81.5 -62.5t50 -90t24.5 -107q6 -47 6 -95v-21q-2 -58 -8 -112l-12 -100q-8 -60 -22 -121.5t-36.5 -119t-54 -107.5t-75.5 -87t-100 -57q-51 -18 -116 -18h-13q-81 3 -140.5 40 t-94.5 109l-37 -129h-159zM246 281q21 -63 62.5 -103t111.5 -43h13q67 1 113 29q50 32 82 83t48.5 115.5t24.5 126.5l12 102q4 34 7 74q2 27 2 53v26q-2 39 -10 75.5t-26.5 64.5t-49.5 45t-79 18h-6q-35 0 -65 -11q-32 -12 -59.5 -32.5t-50.5 -48t-42 -57.5z" />
<glyph unicode="c" horiz-adv-x="928" d="M74 298q-5 42 -5 86q0 48 6 96l16 122q9 66 26.5 129.5t44.5 120t65 103.5t87 81q49 32 110 50q55 16 121 16h15q85 -2 144.5 -35t97 -87t53.5 -124q13 -59 13 -123v-24l-163 1v14q0 34 -4 70q-5 42 -21.5 76.5t-47.5 56.5t-82 24h-13q-67 1 -114 -27q-51 -30 -83.5 -81 t-50 -114.5t-25.5 -126.5l-16 -123q-4 -35 -7 -75q-2 -22 -2 -43q-1 -17 1 -35q2 -38 11.5 -73.5t29.5 -62.5t52 -43.5t81 -17.5h10q43 1 76 15q37 16 64.5 45.5t45.5 68t28 82.5l163 1q-11 -76 -44.5 -142.5t-85.5 -116.5q-51 -49 -119 -77q-63 -26 -137 -26h-11 q-108 2 -177 46t-106 114t-47 159z" />
<glyph unicode="d" horiz-adv-x="996" d="M70 379.5q0 57.5 6 109.5l13 100q8 60 22.5 122t37.5 119.5t56 108t77 87.5t102 57q52 18 117 18h13q72 -2 128.5 -33t93.5 -93l104 561h173l-266 -1536h-157l19 116q-49 -64 -111 -101q-59 -35 -138 -35h-8q-67 1 -115 25t-80.5 63t-51.5 90.5t-27 107.5t-8 113.5z M242 336q2 -38 10 -74t27 -64t50 -45t78 -18h6q32 -1 61 9q31 10 57 28.5t48 43t42 52.5l94 548q-23 57 -63 92t-104 38h-17q-66 0 -111 -28q-51 -32 -84 -84t-50 -116.5t-25 -127.5l-12 -102q-5 -34 -7 -74q-2 -25 -1 -48q0 -16 1 -30z" />
<glyph unicode="e" horiz-adv-x="940" d="M75 463l15 122q8 64 25 127.5t44 122t64.5 108t86.5 85.5q48 36 108 56q55 18 121 18h14q72 -2 124.5 -24t88 -59t55.5 -86t29 -105q8 -48 8 -100v-18q-2 -60 -9 -119l-15 -103l-580 1l-4 -28q-8 -50 -9 -102q0 -5 1 -11q1 -58 19.5 -106t58.5 -79t109 -32h8q35 0 67 8 q36 9 67.5 25t60 39t55.5 50l81 -113q-64 -84 -158 -123q-89 -37 -187 -37h-10q-105 1 -175 42t-110 108q-39 68 -51 154q-7 47 -7 96q0 41 5 83zM267 640l415 -1l5 26q6 42 6 88q-1 3 -1 7q0 50 -14 91.5t-46.5 69t-89.5 30.5h-13q-59 0 -101 -24q-46 -27 -78 -72.5 t-51 -102.5t-32 -112z" />
<glyph unicode="f" horiz-adv-x="639" d="M99 0l163 939h-137l25 143h137l15 114q10 75 36 141.5t69.5 116t105.5 78.5q60 27 138 27h6q29 -1 56.5 -6t55.5 -13l-25 -149q-20 5 -40 8t-40 4q-44 0 -76.5 -17.5t-55 -47t-36 -66.5t-19.5 -76l-18 -114h180l-25 -143h-179l-163 -939h-173z" />
<glyph unicode="g" horiz-adv-x="989" d="M2 -285l82 119q44 -48 99.5 -78t121.5 -32h12q54 0 96 16q47 19 80.5 53.5t54 82.5t30.5 105l26 126q-49 -60 -110 -95q-58 -32 -131 -32h-9q-68 1 -116 24.5t-80.5 63t-51 90.5t-26.5 107q-9 53 -9 107q0 3 1 6q0 58 6 111l12 100q8 60 22.5 122.5t37.5 120t55.5 108 t77 87.5t101.5 57q53 18 117 18h13q78 -2 136 -37.5t93 -104.5l36 122h157l-185 -1091q-12 -90 -46 -168t-89 -134.5t-131 -87.5q-69 -28 -156 -28h-17q-43 1 -86 11.5t-83.5 29t-76.5 44t-64 57.5zM244 337q1 -39 9.5 -75t27.5 -64t49.5 -45t77.5 -18h6q34 0 62 9 q30 11 56.5 29.5t48.5 43t42 53.5l93 543q-23 57 -62.5 93.5t-103.5 39.5h-13q-68 0 -115 -28q-51 -32 -84 -84t-50 -116.5t-25 -127.5l-12 -102q-4 -34 -7 -73q-1 -24 -1 -49q0 -14 1 -29z" />
<glyph unicode="h" horiz-adv-x="969" d="M23 0l267 1536h173l-107 -566q26 29 55.5 53.5t62.5 42.5q32 16 68 26q33 9 69 9h8q81 -1 129.5 -37.5t72.5 -93.5q25 -57 29 -126q2 -27 1 -54q0 -41 -4 -81l-118 -709h-172l119 712q4 38 4 79t-11.5 75.5t-38.5 57t-76 23.5h-5q-35 0 -65 -13q-32 -14 -60 -37 t-50.5 -52t-41.5 -58l-136 -787h-173z" />
<glyph unicode="i" horiz-adv-x="465" d="M37 0l188 1082h173l-188 -1082h-173zM265 1368q2 43 28 75t71 34h5q21 1 37 -7q18 -8 30 -23q14 -15 20 -35q6 -17 5 -35v-6q-2 -44 -28.5 -75.5t-71.5 -32.5h-5q-20 0 -36 7q-18 8 -30 22q-14 14 -20 34q-6 17 -5 36v6z" />
<glyph unicode="j" horiz-adv-x="454" d="M-194 -420l15 148q17 -4 34.5 -7.5t34.5 -3.5q32 0 53 14.5t34.5 36.5t20.5 49.5t11 53.5l206 1211h173l-205 -1210q-8 -60 -25.5 -117t-49.5 -101t-80 -70q-46 -24 -109 -24h-10q-27 1 -52 6.5t-51 13.5zM250 1367q2 43 27.5 75.5t71.5 34.5h5q20 0 36 -7 q19 -9 31.5 -23.5t18.5 -34.5q5 -17 5 -36v-6q-2 -43 -28 -74.5t-72 -32.5h-5q-20 0 -36 7q-18 8 -30 22.5t-18 33.5q-6 16 -6 35v6z" />
<glyph unicode="k" horiz-adv-x="905" d="M24 0l267 1536h173l-158 -907l86 97l312 356h221l-422 -462l265 -620h-189l-199 492l-117 -113l-66 -379h-173z" />
<glyph unicode="l" horiz-adv-x="465" d="M37 0l267 1536h173l-267 -1536h-173z" />
<glyph unicode="m" horiz-adv-x="1505" d="M24 0l188 1082l161 1l-21 -101q54 58 120 90q62 30 137 30h9q79 -2 138.5 -41t84.5 -115q57 70 129 114q71 43 162 43h4q83 -2 134.5 -37.5t78 -91t32.5 -124.5q3 -32 3 -64q0 -37 -4 -75l-119 -711h-171l118 713q3 34 3 67v17q-1 42 -15 75t-43.5 54t-80.5 21h-4 q-42 -1 -78 -19q-38 -20 -66 -51t-46.5 -71t-24.5 -80v-5l-123 -721h-174l119 712q3 27 3 54q0 14 -1 28q-2 42 -15.5 74.5t-42.5 54t-78 23.5h-4q-70 0 -117 -38q-49 -38 -84 -96l-140 -812h-172z" />
<glyph unicode="n" horiz-adv-x="971" d="M23 0l188 1082l162 1l-23 -118q52 61 118 99q65 38 146 38h4q81 -1 129.5 -38t72.5 -94q26 -57 30 -126q2 -27 1 -54q0 -41 -4 -81l-118 -709h-172l119 712q4 38 4 79t-11.5 75.5t-38.5 57t-76 23.5h-5q-35 0 -65 -13q-32 -14 -60 -37t-50.5 -52t-41.5 -58l-136 -787 h-173z" />
<glyph unicode="o" horiz-adv-x="1007" d="M76 489l12 100q9 64 27.5 127.5t47.5 121.5t68.5 107.5t89.5 84.5q49 36 111 55q56 17 121 17h14q104 -3 173 -49.5t107.5 -119t50.5 -162.5q7 -49 7 -98q0 -41 -5 -82l-12 -102q-9 -64 -27.5 -127.5t-47.5 -120.5t-68.5 -106t-89.5 -84q-49 -35 -111 -54 q-56 -17 -121 -17h-14q-104 3 -173 49t-108 119q-38 72 -50 162q-6 48 -7 96q0 42 5 83zM243 416q0 -8 -1 -16q0 -30 4 -62q4 -40 15 -76.5t31 -65t51 -46.5t76 -20h13q68 0 116 29q52 32 86.5 84.5t53.5 117.5t27 128l13 103q2 33 4 72q0 11 1 21q0 27 -3 57 q-4 40 -15 76.5t-31.5 65.5t-51.5 47t-76 20h-11q-41 0 -76 -13q-39 -15 -70 -42t-54.5 -63.5t-40 -77t-27.5 -83t-16 -81.5l-13 -103q-4 -34 -5 -72z" />
<glyph unicode="p" horiz-adv-x="990" d="M-48 -416l260 1498l155 1l-20 -121q50 65 114 104q62 37 145 37h4q70 -1 119 -24.5t81 -62.5t50 -90t25 -108q5 -43 5 -89v-26q-2 -59 -8 -113l-13 -100q-8 -60 -21.5 -121.5t-36 -118.5t-54 -107.5t-75.5 -87.5t-100 -57q-52 -19 -116 -19h-13q-73 2 -132.5 32.5 t-99.5 92.5l-97 -520h-172zM241 254q23 -57 63 -89t103 -35h13q68 0 116 29q52 32 85.5 84.5t51 117.5t25.5 128l13 103q4 34 7 74q1 19 1 39t-1 39q-3 40 -12 76t-28.5 63.5t-51 44.5t-78.5 18h-6q-32 0 -59 -9q-30 -10 -55.5 -27t-48 -40.5t-41.5 -50.5z" />
<glyph unicode="q" horiz-adv-x="1004" d="M69 377q1 58 7 112l13 100q8 62 22.5 124.5t37.5 120t56 107.5t78 86.5t103 56.5q52 18 118 18h13q73 -2 130 -33t94 -94l33 107h159l-260 -1498h-173l98 511q-48 -55 -108 -86q-55 -29 -125 -29h-9q-68 1 -117.5 24t-82.5 62t-52 89.5t-28 106.5q-7 51 -7 103v12z M241 336q2 -40 11 -76.5t28 -65t50.5 -46t78.5 -18.5h7q30 0 56 8q29 9 54.5 25t47.5 38t42 48l100 583q-24 51 -63 83.5t-99 35.5h-13q-68 0 -116 -29q-52 -32 -86 -85t-52 -118.5t-26 -128.5l-13 -102q-4 -34 -6 -74q-2 -21 -2 -43q0 -18 1 -35z" />
<glyph unicode="r" horiz-adv-x="614" d="M23 0l188 1082l167 1l-24 -111q19 27 41.5 51.5t48.5 43t57 28.5q28 9 60 9h7q20 -1 38 -5.5t36 -9.5l-19 -172q-19 4 -38 6.5t-39 2.5q-39 0 -70.5 -11.5t-58 -32t-48 -48t-39.5 -59.5l-134 -775h-173z" />
<glyph unicode="s" horiz-adv-x="915" d="M46 324l174 -1v-9q0 -36 8 -67q8 -35 28 -60.5t51.5 -40t75.5 -14.5q36 0 70 9t61.5 28.5t46 48t23.5 67.5q1 10 1 19q1 25 -9 47q-14 29 -38 51t-55 38.5t-59 30.5q-52 26 -100.5 54t-86 64t-58.5 84q-18 40 -18 93q0 10 1 21q4 72 35.5 131t81.5 100q51 42 115 64 q62 21 128 20h6q72 -2 129.5 -26.5t97 -68t59.5 -103.5q17 -52 17 -113v-18h-171v8q0 30 -6 58q-8 32 -25.5 56t-45 38.5t-65.5 15.5q-36 0 -68 -10.5t-56.5 -31t-41 -49.5t-21.5 -65q-5 -35 6.5 -60.5t33 -44.5t49.5 -33.5t56 -27.5q54 -26 106 -55t92 -67t63 -88 q20 -43 19 -99v-20q-5 -77 -37.5 -137t-84.5 -101q-50 -40 -118 -61q-62 -19 -128 -19h-13q-75 1 -137 27t-106 71q-43 46 -66 108q-20 55 -20 121v17z" />
<glyph unicode="t" horiz-adv-x="597" d="M80 939l26 143h159l46 262h172l-46 -262h159l-25 -143h-158l-114 -673q-2 -19 -2.5 -40.5t4.5 -40.5t18 -31.5t39 -12.5q18 -1 36.5 2.5t35.5 7.5l-15 -151q-51 -18 -103 -18h-10q-59 0 -94.5 27.5t-53.5 69.5q-19 43 -23 93q-2 25 -2 49.5t2 47.5l110 670h-161z" />
<glyph unicode="u" horiz-adv-x="970" d="M87 291.5q0 46.5 5 91.5l117 699h171l-116 -702q-2 -32 -4 -73q0 -6 -1 -12q0 -35 8 -66q9 -37 31.5 -63.5t67.5 -28.5h14q70 1 124 37q58 40 100 106l138 802h173l-187 -1082h-163l19 95q-51 -58 -116 -88q-61 -28 -133 -28h-10q-55 1 -95 19t-67.5 48t-44 70t-24 84.5 t-7.5 91z" />
<glyph unicode="v" horiz-adv-x="860" d="M123 1082h170l79 -811l325 811h182l-481 -1082h-129z" />
<glyph unicode="w" horiz-adv-x="1301" d="M134 1082h165l32 -748l325 748h137l65 -769l293 769h176l-445 -1082h-138l-69 772l-334 -772h-139z" />
<glyph unicode="x" horiz-adv-x="882" d="M-49 0l385 556l-198 526h189l114 -393l241 393h209l-376 -544l204 -538h-189l-121 404l-249 -404h-209z" />
<glyph unicode="y" horiz-adv-x="837" d="M-88 -422l17 150q17 -4 37 -6h11q39 0 69 12q35 13 62 37.5t47 58t36 71.5l52 119l-122 1062h182l56 -785l328 785h189l-560 -1250q-20 -48 -48.5 -97t-66 -88.5t-85.5 -64.5q-43 -22 -97 -22h-9q-25 1 -49.5 6.5t-48.5 11.5z" />
<glyph unicode="z" horiz-adv-x="882" d="M-3 0l23 145l598 784h-472l24 153h680l-22 -140l-605 -791h502l-25 -151h-703z" />
<glyph unicode="{" horiz-adv-x="618" d="M64 541l16 145q52 3 88.5 23t61.5 52.5t39 74.5t21 89l28 207q11 86 38 159t71.5 132t107.5 103.5t147 72.5l24 -117q-54 -23 -91.5 -60t-62.5 -83t-39 -99t-22 -108l-28 -207q-14 -102 -60 -181t-135 -133q33 -29 53 -64.5t30 -75.5t11.5 -82.5t-2.5 -83.5l-27 -207 q-6 -47 -9 -98t5.5 -99t33 -88t72.5 -64l-41 -114q-74 30 -123 78t-76.5 109t-35.5 131.5t1 145.5l28 207q4 41 3.5 81.5t-13 73t-39.5 54t-75 26.5z" />
<glyph unicode="|" horiz-adv-x="494" d="M33 -270l270 1726h146l-270 -1726h-146z" />
<glyph unicode="}" horiz-adv-x="618" d="M-96 -251q55 23 92.5 60t62.5 83t39.5 99t22.5 108l28 206q14 106 62 184.5t144 130.5q-36 26 -58.5 61t-34 75t-13.5 83.5t2 85.5l28 208q6 47 8.5 98t-6.5 99t-33.5 88t-72.5 64l44 113q74 -30 122.5 -77.5t75.5 -108.5t34.5 -131.5t-0.5 -145.5l-28 -208 q-5 -41 -4.5 -81.5t13 -73t40 -54t75.5 -25.5l-16 -145q-52 -3 -88.5 -23t-61.5 -52.5t-39 -75t-21 -89.5l-28 -206q-12 -86 -38.5 -159t-71 -132t-107.5 -103.5t-147 -72.5z" />
<glyph unicode="~" horiz-adv-x="1181" d="M99 436q6 63 27.5 129t59.5 119.5t93 87t129 31.5q37 -1 69.5 -12.5t61.5 -31t54 -44.5t47 -52q13 -17 27 -34t29.5 -31.5t34.5 -24t42 -9.5q41 -1 69.5 20t47.5 53t29.5 69.5t15.5 69.5l140 1q-4 -41 -15 -85.5t-29 -86.5t-43 -79.5t-58 -65.5t-74 -44t-90 -15 q-38 1 -70.5 12.5t-61.5 31t-54 44.5t-47 52q-13 16 -26.5 33t-29.5 31.5t-35 24.5t-42 10q-40 1 -67 -18.5t-44.5 -49.5t-27 -66t-14.5 -67z" />
<glyph unicode="&#xa1;" horiz-adv-x="470" d="M-23 -360l193 1044h157l-169 -1044h-181zM200 995q2 43 28.5 74.5t71.5 32.5q23 1 41 -7t31 -22.5t19.5 -33.5t5.5 -41q-2 -44 -28.5 -76t-71.5 -34q-23 -1 -41.5 7.5t-31 23t-19 34.5t-5.5 42z" />
<glyph unicode="&#xa2;" horiz-adv-x="964" d="M78.5 323q-5.5 77 3.5 157l16 122q12 90 40.5 174t75.5 151.5t115 113t160 57.5l39 220h173l-41 -230q59 -18 100.5 -55t68 -87t37.5 -111t9 -126l-163 1q1 42 -4 84.5t-21.5 76.5t-47.5 56t-82 24q-76 3 -127 -27.5t-83.5 -81t-50 -114t-25.5 -126.5l-16 -123 q-4 -36 -7 -75.5t-0.5 -78t11.5 -73.5t29 -62t52 -43.5t81 -17.5q49 -2 86 14.5t64.5 46t45.5 68t28 82.5l163 1q-10 -69 -38.5 -130.5t-72.5 -109.5t-101.5 -79t-126.5 -40l-40 -227h-173l43 241q-73 22 -119.5 71t-71 114t-30 142z" />
<glyph unicode="&#xa3;" horiz-adv-x="1025" d="M-9 0l23 156l56 -2q33 15 54.5 43.5t35 63t21 71.5t12.5 69l31 221h-128l28 157h123l34 260q11 87 44.5 167t89 141t131 96.5t170.5 32.5q83 -2 141 -35t94 -87t50 -123.5t10 -144.5l-179 1q3 40 -1.5 80.5t-20.5 74t-45.5 55t-77.5 23.5q-54 2 -94 -25t-67.5 -69 t-43.5 -92t-22 -94l-34 -261h253l-28 -157h-248l-29 -218q-11 -69 -35 -132t-66 -118l600 3l-29 -157h-853z" />
<glyph unicode="&#xa4;" horiz-adv-x="1426" d="M18 118l159 134q-30 85 -40.5 172t0.5 177q14 108 58 203t116 176l-117 157l141 127l114 -148q81 55 171 87.5t190 30.5q90 -1 173.5 -31.5t151.5 -89.5l175 152l111 -146l-173 -147q32 -87 43.5 -176t-0.5 -182q-14 -103 -54.5 -193.5t-106.5 -170.5l115 -150l-143 -127 l-106 137q-84 -60 -178 -96t-199 -34q-94 2 -180 34t-155 96l-157 -136zM304 599q-11 -81 5.5 -160t58.5 -142.5t107.5 -103.5t154.5 -43q96 -3 180.5 36t150 105t108 151t54.5 175q10 80 -6 159t-57.5 142t-107.5 102.5t-154 42.5q-96 3 -180.5 -35.5t-150 -103.5 t-108.5 -150t-55 -175z" />
<glyph unicode="&#xa5;" horiz-adv-x="1064" d="M83 322l22 124h296l30 165h-298l22 125h252l-213 720h194l167 -638l389 638h213l-461 -720h239l-23 -125h-301l-29 -165h302l-22 -124h-301l-56 -322h-181l56 322h-297z" />
<glyph unicode="&#xa6;" horiz-adv-x="486" d="M-9 -270l138 791h182l-138 -791h-182zM159 698l132 758h182l-132 -758h-182z" />
<glyph unicode="&#xa7;" horiz-adv-x="1077" d="M-26 -64l172 2q-4 -55 5.5 -105t34.5 -89t67 -62.5t103 -24.5q51 -1 97 14t82 44t59.5 70.5t30.5 92.5q7 54 -11 93t-51 67.5t-76.5 49t-86.5 38.5q-74 30 -135 66.5t-103.5 85t-63 113.5t-12.5 152q9 99 60.5 168.5t136.5 116.5q-46 60 -59.5 130t-6.5 144q8 90 47 160 t100.5 118.5t140 73t164.5 22.5q96 -2 165.5 -36t113 -91.5t61 -135.5t11.5 -168h-171q4 50 -3.5 99.5t-29.5 89t-60.5 64.5t-96.5 27q-51 1 -97 -14t-81.5 -43.5t-58.5 -69.5t-30 -93q-8 -58 8 -97.5t47.5 -67.5t75 -48t90.5 -38q74 -29 135.5 -65t104.5 -85t64 -113.5 t14 -151.5q-9 -101 -61 -170.5t-140 -115.5q47 -60 61 -129.5t8 -143.5q-8 -91 -46.5 -162t-99.5 -119t-139.5 -72.5t-166.5 -22.5q-97 2 -169.5 34.5t-120 89.5t-68.5 135.5t-15 172.5zM261 545q-8 -57 6.5 -97.5t44.5 -69.5t72.5 -49.5t90.5 -39.5q32 -12 62.5 -24.5 t61.5 -26.5q66 27 106.5 76.5t51.5 121.5q7 54 -9.5 94t-48.5 69.5t-74.5 51.5t-86.5 40q-32 13 -63.5 25t-63.5 26q-67 -26 -103.5 -76t-46.5 -121z" />
<glyph unicode="&#xa8;" horiz-adv-x="840" d="M219 1369q1 46 30 76.5t76 32.5q47 1 77.5 -28.5t29.5 -76.5q0 -46 -30 -76t-77 -32q-47 -1 -76.5 28t-29.5 76zM636 1367q1 46 30 77t76 33q48 1 78 -28.5t29 -77.5q0 -47 -30 -76.5t-77 -31.5q-46 -1 -76.5 28t-29.5 76z" />
<glyph unicode="&#xa9;" horiz-adv-x="1571" d="M108 722q11 99 45.5 194t88 179.5t124.5 155t155.5 121.5t180.5 78.5t200 25.5q99 -1 184 -31t153 -81t119 -121t82.5 -152t43 -172.5t1.5 -183.5q-11 -99 -45 -194t-87.5 -179.5t-124.5 -155.5t-155.5 -122t-180.5 -79t-200 -26q-99 2 -184 31.5t-153.5 81t-119.5 122 t-82.5 152.5t-43 172.5t-1.5 183.5zM219 569.5q8 -75.5 32.5 -144.5t65 -128t96 -103t125.5 -69.5t153 -26.5q88 -2 169.5 21.5t153.5 66.5t133 103t107 131.5t76.5 152t41.5 163.5q10 77 2 152t-32 143.5t-65 127t-96 102t-125 68.5t-153 27q-88 2 -169.5 -21t-153.5 -66 t-133 -102.5t-107.5 -130.5t-77 -151t-41.5 -163q-10 -77 -2 -152.5zM442 670l12 116q9 78 38 149t77 124.5t115 84.5t152 30q72 -2 128 -24.5t93.5 -63t55 -98t14.5 -129.5l-142 1q5 85 -29 134t-125 51q-55 1 -96 -21t-70 -58.5t-46 -83.5t-23 -95l-13 -118 q-4 -43 0 -87.5t21 -81.5t49 -61.5t84 -26.5q47 -2 82 10.5t60 36.5t40 58.5t23 78.5l140 1q-7 -74 -34 -133.5t-71.5 -100t-106 -61.5t-137.5 -19q-81 2 -139 35.5t-93.5 87t-50 122t-8.5 142.5z" />
<glyph unicode="&#xaa;" horiz-adv-x="797" d="M191 910q3 66 29 111.5t68.5 74t97 41.5t113.5 13l82 -1l10 54q3 20 3.5 43t-4.5 43t-18.5 33.5t-40.5 14.5q-51 1 -80 -29.5t-40 -75.5l-148 11q5 55 27.5 98.5t58.5 74t83 46.5t102 15q60 -2 101.5 -25t67 -61t35 -87.5t4.5 -103.5l-48 -314q-8 -46 -9.5 -91t3.5 -91 l-147 -1q-2 34 0 69q-34 -36 -74.5 -59t-92.5 -23q-48 0 -83 18t-57.5 48t-33.5 70t-9 84zM344 915q-5 -38 12 -63.5t58 -25.5q37 0 69 19.5t58 42.5l29 149h-67q-29 -1 -55.5 -8.5t-48.5 -22.5t-36.5 -37.5t-18.5 -53.5z" />
<glyph unicode="&#xab;" horiz-adv-x="840" d="M86 538l2 20l303 389h137l-281 -410l132 -386h-114zM361 538l2 20l303 389h137l-281 -410l132 -386h-114z" />
<glyph unicode="&#xac;" horiz-adv-x="978" d="M129 639l29 161h685l-74 -425h-174l46 264h-512z" />
<glyph unicode="&#xad;" horiz-adv-x="503" d="M35 543l27 151h402l-27 -151h-402z" />
<glyph unicode="&#xae;" horiz-adv-x="1572" d="M107 722q11 99 45.5 194t88 179.5t124.5 155t155.5 121.5t180.5 78.5t200 25.5q99 -1 184 -31t153.5 -81t119 -121t82.5 -152t43 -172.5t1 -183.5q-11 -99 -45 -194t-87.5 -179.5t-124.5 -155.5t-155 -122.5t-180 -79.5t-200 -26q-100 2 -185 32t-153.5 81.5t-119 122 t-82.5 152.5t-43.5 172.5t-1.5 183.5zM217.5 569q7.5 -76 32 -144.5t65 -128t96 -103t125.5 -69t154 -27.5q88 -2 170 21.5t154 66.5t132.5 103.5t107 132t76.5 151.5t41 164q10 77 2.5 152t-32 143.5t-65 127.5t-96 102t-125.5 68t-153 27q-88 2 -169.5 -21t-154 -65.5 t-133 -102t-107 -131t-77 -151.5t-41.5 -163q-10 -77 -2.5 -153zM452 316l133 849l257 -1q58 -2 110.5 -16.5t92 -44t61 -76t17.5 -111.5q-2 -37 -15 -66.5t-33 -53.5t-47 -43.5t-57 -36.5q28 -16 46 -38t27.5 -48t12 -55.5t-0.5 -60.5l-7 -55q-4 -33 -2.5 -63.5t3.5 -63.5 l-2 -17h-138q-6 37 -4 73t7 72l6 54q7 66 -17 100.5t-92 38.5l-167 1l-53 -338h-138zM662 782l143 -1q30 1 60.5 9t56 23.5t43 39.5t22.5 57q6 39 -3 63.5t-29.5 38.5t-49.5 19.5t-62 6.5h-140z" />
<glyph unicode="&#xaf;" horiz-adv-x="833" d="M232 1313l23 143h597l-23 -143h-597z" />
<glyph unicode="&#xb0;" horiz-adv-x="752" d="M234 1207q2 53 23.5 102t58 86.5t84.5 60t102 21.5q51 -1 92.5 -22.5t70.5 -56.5t44.5 -80t14.5 -93q-2 -53 -23 -101.5t-57 -85t-83.5 -58.5t-101.5 -21q-50 1 -92.5 21.5t-72.5 54.5t-46 78.5t-14 93.5zM355 1209q-3 -24 3.5 -46t20.5 -39t34.5 -27t45.5 -10 q28 0 53 11t44.5 29.5t32 43.5t15.5 52q3 24 -3 47t-19 41t-33.5 28.5t-46.5 10.5q-28 0 -53.5 -12t-45 -31.5t-32.5 -45t-16 -52.5z" />
<glyph unicode="&#xb1;" horiz-adv-x="944" d="M39 1l27 151h681l-26 -151h-682zM117 703l24 152h307l64 412h155l-65 -412h288l-25 -152h-286l-65 -414h-155l65 414h-307z" />
<glyph unicode="&#xb2;" horiz-adv-x="665" d="M95 667l20 117l271 264q18 19 38.5 40.5t38.5 45.5t31 50t17 54q2 18 0.5 36.5t-9 33.5t-21 24.5t-35.5 9.5q-30 0 -51 -11.5t-36 -31t-24 -44t-14 -48.5l-146 -1q6 55 27 103t55.5 84t81.5 56.5t106 19.5q51 0 92.5 -17t70 -47t42.5 -72.5t11 -93.5q-3 -48 -21 -89 t-46 -77.5t-61 -69.5t-66 -63l-157 -145h306l-23 -128h-498z" />
<glyph unicode="&#xb3;" horiz-adv-x="665" d="M118 889h143q-1 -45 19.5 -74.5t69.5 -30.5q52 0 86.5 33t41.5 84q6 53 -18 79t-75 28h-75l10 116h69q53 3 88 33.5t42 84.5q5 41 -13 68.5t-63 28.5q-44 0 -70 -27t-39 -65l-147 -1q5 51 26 92t54.5 70.5t77.5 45t96 14.5q49 -1 91 -16t72.5 -42.5t46.5 -68t13 -92.5 q-4 -67 -42.5 -110.5t-95.5 -73.5q27 -12 45 -29.5t29 -40t15 -48t3 -53.5q-2 -57 -25 -101.5t-60.5 -75.5t-87 -47t-103.5 -15q-53 1 -95 18t-71 48t-44 73.5t-14 94.5z" />
<glyph unicode="&#xb4;" horiz-adv-x="633" d="M213 1240l234 294h230l-306 -294h-158z" />
<glyph unicode="&#xb5;" horiz-adv-x="1000" d="M-34 -416l260 1498h172l-102 -624q-3 -24 -7 -57t-5 -69.5t2.5 -72t16 -64t35.5 -47t61 -19.5q76 -3 128.5 34t89.5 100l142 819h174l-188 -1082h-155l17 101q-20 -27 -42.5 -49.5t-48.5 -39t-56.5 -25.5t-65.5 -9q-50 1 -92.5 16.5t-76.5 53.5l-87 -464h-172z" />
<glyph unicode="&#xb6;" horiz-adv-x="873" d="M137 980q9 98 44.5 184.5t95.5 151.5t142.5 103t186.5 38l251 -1l-253 -1456h-174l96 521h-59q-96 2 -163 42t-106.5 104t-54 145.5t-6.5 167.5z" />
<glyph unicode="&#xb7;" horiz-adv-x="493" d="M156 726q1 47 28 80.5t76 35.5q24 1 43 -7.5t32.5 -23.5t20.5 -35.5t7 -43.5q0 -47 -28 -79.5t-76 -34.5q-24 -1 -43 7.5t-32.5 23t-20.5 34.5t-7 43z" />
<glyph unicode="&#xb8;" horiz-adv-x="465" d="M-50 -437l5 108q25 2 49.5 8t44.5 18.5t33.5 32t17.5 48.5q4 27 -4.5 43t-24.5 25t-37.5 13t-42.5 7l42 134h123l-19 -55q28 -8 46.5 -24.5t30 -38t16 -47.5t3.5 -53q-2 -60 -27 -101t-64.5 -66.5t-89.5 -37.5t-102 -14z" />
<glyph unicode="&#xb9;" horiz-adv-x="624" d="M222 1215l24 135l310 113h21l-132 -789h-146l104 597z" />
<glyph unicode="&#xba;" horiz-adv-x="810" d="M194 1043l8 79q7 66 31 131t65 115.5t98.5 80.5t132.5 28q72 -2 121 -34.5t78 -82.5t39.5 -112.5t5.5 -124.5l-8 -80q-8 -66 -31.5 -130.5t-64 -115t-98 -80.5t-132.5 -28q-72 2 -121 34.5t-78 82.5t-40 112.5t-6 124.5zM344.5 975.5q0.5 -36.5 10.5 -69t32 -55.5t62 -24 q42 -1 71.5 20t48.5 53t29.5 70.5t14.5 72.5l8 81q3 29 2.5 65.5t-10.5 69t-31.5 55t-61.5 24.5q-42 1 -71.5 -19.5t-49 -53t-30.5 -70.5t-15 -72l-8 -82q-2 -29 -1.5 -65.5z" />
<glyph unicode="&#xbb;" horiz-adv-x="840" d="M15 152l281 408l-132 389h116l179 -388l-2 -20l-303 -389h-139zM309 152l281 408l-132 389h116l179 -388l-2 -20l-303 -389h-139z" />
<glyph unicode="&#xbc;" horiz-adv-x="1276" d="M182 1205l24 135l310 113h21l-132 -789h-146l104 597zM223 192l770 1128l91 -72l-772 -1128zM590 169l14 112l384 507l148 1l-85 -491l88 1l-24 -130h-81l-30 -169h-145l30 169h-299zM756 299h155l55 281l-14 -20z" />
<glyph unicode="&#xbd;" horiz-adv-x="1356" d="M181 1205l24 135l310 113h21l-132 -789h-146l104 597zM187 192l770 1128l91 -72l-772 -1128zM639 0l20 117l271 264q18 19 38.5 40.5t38.5 45.5t31 50t17 54q2 18 0.5 36.5t-9 33.5t-21 24.5t-35.5 9.5q-30 0 -51 -11.5t-36 -31t-24 -44t-14 -48.5l-146 -1q6 55 27 103 t55.5 84t81.5 56.5t106 19.5q51 0 92.5 -17t70 -47t42.5 -72.5t11 -93.5q-3 -48 -21 -89t-46 -77.5t-61 -69.5t-66 -63l-157 -145h306l-23 -128h-498z" />
<glyph unicode="&#xbe;" horiz-adv-x="1348" d="M159 890h143q-1 -45 19.5 -74.5t69.5 -30.5q52 0 86.5 33t41.5 84q6 53 -18 79t-75 28h-75l10 116h69q53 3 88 33.5t42 84.5q5 41 -13 68.5t-63 28.5q-44 0 -70 -27t-39 -65l-147 -1q5 51 26 92t54.5 70.5t77.5 45t96 14.5q49 -1 91 -16t72.5 -42.5t46.5 -68t13 -92.5 q-4 -67 -42.5 -110.5t-95.5 -73.5q27 -12 45 -29.5t29 -40t15 -48t3 -53.5q-2 -57 -25 -101.5t-60.5 -75.5t-87 -47t-103.5 -15q-53 1 -95 18t-71 48t-44 73.5t-14 94.5zM321 192l770 1128l91 -72l-772 -1128zM657 169l14 112l384 507l148 1l-85 -491l88 1l-24 -130h-81 l-30 -169h-145l30 169h-299zM823 299h155l55 281l-14 -20z" />
<glyph unicode="&#xbf;" horiz-adv-x="847" d="M-34 -14q6 69 31 129.5t62 115t82 104t91 96.5q52 53 78.5 115t37.5 134l169 1q-7 -62 -23 -112.5t-41 -95.5t-58 -87.5t-74 -87.5q-31 -34 -60.5 -68.5t-54 -71.5t-41 -78t-22.5 -89q-5 -38 -2 -76t17 -69.5t41.5 -51.5t73.5 -21q44 -1 78 16.5t59 47t40.5 66.5t22.5 76 l170 1q-9 -77 -39 -144.5t-79 -117.5t-115.5 -78t-148.5 -26q-81 2 -140 32t-95.5 80t-51.5 117t-8 143zM388 995q2 44 28.5 74.5t71.5 32.5q22 1 40 -7t30.5 -22.5t19 -33.5t5.5 -41q-2 -43 -27.5 -75.5t-71.5 -33.5q-23 -1 -41.5 7.5t-31 23t-18.5 34t-5 41.5z" />
<glyph unicode="&#xc0;" horiz-adv-x="1155" d="M-66 0l707 1456h154l203 -1456h-177l-45 380h-476l-176 -380h-190zM374 538h383l-77 660zM492 1844h205l143 -294h-143z" />
<glyph unicode="&#xc1;" horiz-adv-x="1155" d="M-66 0l707 1456h154l203 -1456h-177l-45 380h-476l-176 -380h-190zM374 538h383l-77 660zM636 1550l234 294h230l-306 -294h-158z" />
<glyph unicode="&#xc2;" horiz-adv-x="1155" d="M-66 0l707 1456h154l203 -1456h-177l-45 380h-476l-176 -380h-190zM374 538h383l-77 660zM492 1561v14l242 271h99l169 -272v-14l-138 2l-84 169l-148 -168z" />
<glyph unicode="&#xc3;" horiz-adv-x="1155" d="M-66 0l707 1456h154l203 -1456h-177l-45 380h-476l-176 -380h-190zM374 538h383l-77 660zM451 1563q4 41 17.5 85.5t37.5 81t60 59.5t86 22q22 -1 40 -8.5t35 -19t33 -24.5t32.5 -23.5t34.5 -17.5t39 -6q22 1 38.5 11.5t28 27t19 36.5t12.5 38l107 -10q-4 -42 -17 -85.5 t-36.5 -79.5t-59 -58.5t-85.5 -21.5q-33 0 -58.5 16t-49.5 35t-49 33.5t-56 13.5q-22 -1 -38 -11.5t-27.5 -27t-19 -36t-12.5 -37.5z" />
<glyph unicode="&#xc4;" horiz-adv-x="1155" d="M-66 0l707 1456h154l203 -1456h-177l-45 380h-476l-176 -380h-190zM374 538h383l-77 660zM450 1679q1 46 30 76.5t76 32.5q47 1 77.5 -28.5t29.5 -76.5q0 -46 -30 -76t-77 -32q-47 -1 -76.5 28t-29.5 76zM867 1677q1 46 30 77t76 33q48 1 78 -28.5t29 -77.5 q0 -47 -30 -76.5t-77 -31.5q-46 -1 -76.5 28t-29.5 76z" />
<glyph unicode="&#xc5;" horiz-adv-x="1155" d="M-66 0l707 1456h154l203 -1456h-177l-45 380h-476l-176 -380h-190zM374 538h383l-77 660zM564 1721q1 45 18.5 84.5t47.5 69t69.5 46.5t84.5 17q42 0 78 -16t62.5 -43t41.5 -63.5t15 -78.5q-1 -45 -19 -84t-48 -67.5t-69.5 -45t-83.5 -16.5q-42 0 -78 15t-63 41.5 t-42 62.5t-14 78zM660 1723q-2 -21 3.5 -41t18 -35t30.5 -24t41 -9q24 0 46.5 10t40.5 26.5t29.5 38.5t14.5 46q3 22 -2.5 42t-18 35.5t-30.5 25t-41 9.5q-25 0 -47.5 -10.5t-40.5 -27.5t-29.5 -39.5t-14.5 -46.5z" />
<glyph unicode="&#xc6;" horiz-adv-x="1623" d="M-112 0l970 1456h809l-27 -152h-563l-65 -471h481l-27 -151h-475l-74 -531h574l-27 -151h-741l49 353h-438l-225 -353h-221zM444 527h352l100 711z" />
<glyph unicode="&#xc7;" horiz-adv-x="1136" d="M113 453.5q-1 71.5 8 139.5l42 269q12 76 34.5 152t56.5 145t81 128t106.5 101.5t132.5 66t161 21.5q107 -2 180 -42.5t117 -107.5t61.5 -154.5t13.5 -184.5l-180 1q2 59 -2.5 117t-25.5 105t-62 77t-113 32q-63 2 -113 -16.5t-90 -51.5t-69.5 -78.5t-50.5 -96.5 t-35 -105.5t-22 -106.5l-42 -272q-6 -42 -9.5 -91.5t-0.5 -99.5t14.5 -97t36 -83.5t63 -60t96.5 -25.5q80 -3 136 21t94 68.5t61 105.5t38 131l176 2q-15 -105 -55.5 -195t-105 -155t-153 -100.5t-201.5 -32.5q-82 2 -144 29.5t-106 72.5t-72 105.5t-42 127.5t-15 138.5z M324 -446l5 108q25 2 49.5 8t44.5 18.5t33.5 32t17.5 48.5q4 27 -4.5 43t-24.5 25t-37.5 13t-42.5 7l42 134h123l-19 -55q28 -8 46.5 -24.5t30 -38t16 -47.5t3.5 -53q-2 -60 -27 -101t-64.5 -66.5t-89.5 -37.5t-102 -14z" />
<glyph unicode="&#xc8;" horiz-adv-x="996" d="M48 0l252 1456h752l-28 -158h-572l-82 -468h500l-27 -157h-499l-90 -516h582l-28 -157h-760zM442 1856h205l143 -294h-143z" />
<glyph unicode="&#xc9;" horiz-adv-x="996" d="M48 0l252 1456h752l-28 -158h-572l-82 -468h500l-27 -157h-499l-90 -516h582l-28 -157h-760zM586 1562l234 294h230l-306 -294h-158z" />
<glyph unicode="&#xca;" horiz-adv-x="996" d="M48 0l252 1456h752l-28 -158h-572l-82 -468h500l-27 -157h-499l-90 -516h582l-28 -157h-760zM442 1573v14l242 271h99l169 -272v-14l-138 2l-84 169l-148 -168z" />
<glyph unicode="&#xcb;" horiz-adv-x="996" d="M48 0l252 1456h752l-28 -158h-572l-82 -468h500l-27 -157h-499l-90 -516h582l-28 -157h-760zM400 1691q1 46 30 76.5t76 32.5q47 1 77.5 -28.5t29.5 -76.5q0 -46 -30 -76t-77 -32q-47 -1 -76.5 28t-29.5 76zM817 1689q1 46 30 77t76 33q48 1 78 -28.5t29 -77.5 q0 -47 -30 -76.5t-77 -31.5q-46 -1 -76.5 28t-29.5 76z" />
<glyph unicode="&#xcc;" horiz-adv-x="507" d="M55 0l253 1456h179l-253 -1456h-179zM166 1856h205l143 -294h-143z" />
<glyph unicode="&#xcd;" horiz-adv-x="507" d="M55 0l253 1456h179l-253 -1456h-179zM309 1562l234 294h230l-306 -294h-158z" />
<glyph unicode="&#xce;" horiz-adv-x="507" d="M55 0l253 1456h179l-253 -1456h-179zM166 1573v14l242 271h99l169 -272v-14l-138 2l-84 169l-148 -168z" />
<glyph unicode="&#xcf;" horiz-adv-x="507" d="M55 0l253 1456h179l-253 -1456h-179zM124 1691q1 46 30 76.5t76 32.5q47 1 77.5 -28.5t29.5 -76.5q0 -46 -30 -76t-77 -32q-47 -1 -76.5 28t-29.5 76zM541 1689q1 46 30 77t76 33q48 1 78 -28.5t29 -77.5q0 -47 -30 -76.5t-77 -31.5q-46 -1 -76.5 28t-29.5 76z" />
<glyph unicode="&#xd0;" horiz-adv-x="1174" d="M58 666l27 151h134l111 639l326 -1q130 -3 218 -54t139 -134.5t67 -191.5t1 -225l-37 -246q-20 -131 -69 -242.5t-128 -192t-188 -125.5t-249 -44h-332l115 666h-135zM284 157l131 -1q105 -1 183 32.5t133 93.5t88 142.5t48 179.5l38 250q10 79 7.5 157t-29 140.5 t-81.5 102.5t-151 43l-169 1l-84 -481h214l-27 -151h-213z" />
<glyph unicode="&#xd1;" horiz-adv-x="1240" d="M48 0l252 1456h175l374 -1135l197 1135h178l-252 -1456h-175l-373 1130l-196 -1130h-180zM486 1563q4 41 17.5 85.5t37.5 81t60 59.5t86 22q22 -1 40 -8.5t35 -19t33 -24.5t32.5 -23.5t34.5 -17.5t39 -6q22 1 38.5 11.5t28 27t19 36.5t12.5 38l107 -10q-4 -42 -17 -85.5 t-36.5 -79.5t-59 -58.5t-85.5 -21.5q-33 0 -58.5 16t-49.5 35t-49 33.5t-56 13.5q-22 -1 -38 -11.5t-27.5 -27t-19 -36t-12.5 -37.5z" />
<glyph unicode="&#xd2;" horiz-adv-x="1203" d="M116 455q-1 73 8 145l39 253q12 77 33.5 154t55 147t79.5 130t105 103.5t133 67t163 21.5q86 -2 150 -29t109.5 -72t73.5 -105.5t42 -129t14.5 -142t-8.5 -145.5l-39 -252q-12 -78 -33.5 -155t-54.5 -147t-78.5 -129.5t-104.5 -102t-133 -66t-164 -21.5q-85 2 -149 29 t-109.5 72t-74 105t-42.5 128t-15 141zM293 503.5q-3 -50.5 1 -100.5t17 -96t39 -82t66.5 -58.5t100.5 -24.5q65 -2 116 15.5t90.5 50.5t68.5 78t49.5 97t33.5 107.5t21 109.5l39 257q6 46 9 96.5t-0.5 100.5t-16 95.5t-38.5 81t-67 57.5t-101 24q-64 2 -114.5 -16 t-90.5 -51t-69.5 -78.5t-50.5 -97t-34.5 -106.5t-21.5 -108l-38 -256q-6 -45 -9 -95.5zM516 1846h205l143 -294h-143z" />
<glyph unicode="&#xd3;" horiz-adv-x="1203" d="M116 455q-1 73 8 145l39 253q12 77 33.5 154t55 147t79.5 130t105 103.5t133 67t163 21.5q86 -2 150 -29t109.5 -72t73.5 -105.5t42 -129t14.5 -142t-8.5 -145.5l-39 -252q-12 -78 -33.5 -155t-54.5 -147t-78.5 -129.5t-104.5 -102t-133 -66t-164 -21.5q-85 2 -149 29 t-109.5 72t-74 105t-42.5 128t-15 141zM293 503.5q-3 -50.5 1 -100.5t17 -96t39 -82t66.5 -58.5t100.5 -24.5q65 -2 116 15.5t90.5 50.5t68.5 78t49.5 97t33.5 107.5t21 109.5l39 257q6 46 9 96.5t-0.5 100.5t-16 95.5t-38.5 81t-67 57.5t-101 24q-64 2 -114.5 -16 t-90.5 -51t-69.5 -78.5t-50.5 -97t-34.5 -106.5t-21.5 -108l-38 -256q-6 -45 -9 -95.5zM660 1552l234 294h230l-306 -294h-158z" />
<glyph unicode="&#xd4;" horiz-adv-x="1203" d="M116 455q-1 73 8 145l39 253q12 77 33.5 154t55 147t79.5 130t105 103.5t133 67t163 21.5q86 -2 150 -29t109.5 -72t73.5 -105.5t42 -129t14.5 -142t-8.5 -145.5l-39 -252q-12 -78 -33.5 -155t-54.5 -147t-78.5 -129.5t-104.5 -102t-133 -66t-164 -21.5q-85 2 -149 29 t-109.5 72t-74 105t-42.5 128t-15 141zM293 503.5q-3 -50.5 1 -100.5t17 -96t39 -82t66.5 -58.5t100.5 -24.5q65 -2 116 15.5t90.5 50.5t68.5 78t49.5 97t33.5 107.5t21 109.5l39 257q6 46 9 96.5t-0.5 100.5t-16 95.5t-38.5 81t-67 57.5t-101 24q-64 2 -114.5 -16 t-90.5 -51t-69.5 -78.5t-50.5 -97t-34.5 -106.5t-21.5 -108l-38 -256q-6 -45 -9 -95.5zM516 1563v14l242 271h99l169 -272v-14l-138 2l-84 169l-148 -168z" />
<glyph unicode="&#xd5;" horiz-adv-x="1203" d="M116 455q-1 73 8 145l39 253q12 77 33.5 154t55 147t79.5 130t105 103.5t133 67t163 21.5q86 -2 150 -29t109.5 -72t73.5 -105.5t42 -129t14.5 -142t-8.5 -145.5l-39 -252q-12 -78 -33.5 -155t-54.5 -147t-78.5 -129.5t-104.5 -102t-133 -66t-164 -21.5q-85 2 -149 29 t-109.5 72t-74 105t-42.5 128t-15 141zM293 503.5q-3 -50.5 1 -100.5t17 -96t39 -82t66.5 -58.5t100.5 -24.5q65 -2 116 15.5t90.5 50.5t68.5 78t49.5 97t33.5 107.5t21 109.5l39 257q6 46 9 96.5t-0.5 100.5t-16 95.5t-38.5 81t-67 57.5t-101 24q-64 2 -114.5 -16 t-90.5 -51t-69.5 -78.5t-50.5 -97t-34.5 -106.5t-21.5 -108l-38 -256q-6 -45 -9 -95.5zM475 1565q4 41 17.5 85.5t37.5 81t60 59.5t86 22q22 -1 40 -8.5t35 -19t33 -24.5t32.5 -23.5t34.5 -17.5t39 -6q22 1 38.5 11.5t28 27t19 36.5t12.5 38l107 -10q-4 -42 -17 -85.5 t-36.5 -79.5t-59 -58.5t-85.5 -21.5q-33 0 -58.5 16t-49.5 35t-49 33.5t-56 13.5q-22 -1 -38 -11.5t-27.5 -27t-19 -36t-12.5 -37.5z" />
<glyph unicode="&#xd6;" horiz-adv-x="1203" d="M116 455q-1 73 8 145l39 253q12 77 33.5 154t55 147t79.5 130t105 103.5t133 67t163 21.5q86 -2 150 -29t109.5 -72t73.5 -105.5t42 -129t14.5 -142t-8.5 -145.5l-39 -252q-12 -78 -33.5 -155t-54.5 -147t-78.5 -129.5t-104.5 -102t-133 -66t-164 -21.5q-85 2 -149 29 t-109.5 72t-74 105t-42.5 128t-15 141zM293 503.5q-3 -50.5 1 -100.5t17 -96t39 -82t66.5 -58.5t100.5 -24.5q65 -2 116 15.5t90.5 50.5t68.5 78t49.5 97t33.5 107.5t21 109.5l39 257q6 46 9 96.5t-0.5 100.5t-16 95.5t-38.5 81t-67 57.5t-101 24q-64 2 -114.5 -16 t-90.5 -51t-69.5 -78.5t-50.5 -97t-34.5 -106.5t-21.5 -108l-38 -256q-6 -45 -9 -95.5zM474 1681q1 46 30 76.5t76 32.5q47 1 77.5 -28.5t29.5 -76.5q0 -46 -30 -76t-77 -32q-47 -1 -76.5 28t-29.5 76zM891 1679q1 46 30 77t76 33q48 1 78 -28.5t29 -77.5q0 -47 -30 -76.5 t-77 -31.5q-46 -1 -76.5 28t-29.5 76z" />
<glyph unicode="&#xd7;" horiz-adv-x="945" d="M44 338l326 334l-212 337l124 115l206 -330l321 329l94 -132l-329 -337l211 -334l-123 -115l-205 327l-318 -326z" />
<glyph unicode="&#xd8;" horiz-adv-x="1204" d="M25 -93l167 244q-28 46 -45 99.5t-24.5 111.5t-7 118.5t8.5 119.5l39 253q12 77 33.5 154t55 147t79.5 130t105 103.5t133 67t163 21.5q97 -2 165.5 -35.5t114.5 -88.5l112 164h138l-186 -272q35 -87 42.5 -188.5t-5.5 -202.5l-39 -252q-12 -78 -33.5 -155t-54.5 -147 t-78.5 -129.5t-104.5 -102t-133 -66t-164 -21.5q-76 2 -134 23t-103 57l-104 -153h-140zM292 461q0 -36 3.5 -72t11.5 -69l601 879q-25 48 -69.5 79t-117.5 34q-64 2 -114.5 -16t-90.5 -51t-69.5 -78.5t-50.5 -97t-34.5 -106.5t-21.5 -108l-38 -256q-4 -32 -7 -67t-3 -71z M367 203q26 -27 62.5 -43t87.5 -18q65 -2 116 15.5t90.5 50.5t68.5 78t49.5 97t33.5 107.5t21 109.5l39 257q5 45 8.5 94t0.5 98z" />
<glyph unicode="&#xd9;" horiz-adv-x="1126" d="M100 430l174 1026h178l-174 -1027q-7 -60 -1.5 -112.5t28.5 -92t65 -63t109 -25.5q71 -3 125 17.5t92 59.5t61 94t33 122l174 1027h180l-175 -1025q-14 -102 -54 -186.5t-104 -144.5t-150 -92t-192 -30q-102 2 -176.5 36.5t-121 94t-64.5 141.5t-7 180zM474 1844h205 l143 -294h-143z" />
<glyph unicode="&#xda;" horiz-adv-x="1126" d="M100 430l174 1026h178l-174 -1027q-7 -60 -1.5 -112.5t28.5 -92t65 -63t109 -25.5q71 -3 125 17.5t92 59.5t61 94t33 122l174 1027h180l-175 -1025q-14 -102 -54 -186.5t-104 -144.5t-150 -92t-192 -30q-102 2 -176.5 36.5t-121 94t-64.5 141.5t-7 180zM618 1550l234 294 h230l-306 -294h-158z" />
<glyph unicode="&#xdb;" horiz-adv-x="1126" d="M100 430l174 1026h178l-174 -1027q-7 -60 -1.5 -112.5t28.5 -92t65 -63t109 -25.5q71 -3 125 17.5t92 59.5t61 94t33 122l174 1027h180l-175 -1025q-14 -102 -54 -186.5t-104 -144.5t-150 -92t-192 -30q-102 2 -176.5 36.5t-121 94t-64.5 141.5t-7 180zM474 1561v14 l242 271h99l169 -272v-14l-138 2l-84 169l-148 -168z" />
<glyph unicode="&#xdc;" horiz-adv-x="1126" d="M100 430l174 1026h178l-174 -1027q-7 -60 -1.5 -112.5t28.5 -92t65 -63t109 -25.5q71 -3 125 17.5t92 59.5t61 94t33 122l174 1027h180l-175 -1025q-14 -102 -54 -186.5t-104 -144.5t-150 -92t-192 -30q-102 2 -176.5 36.5t-121 94t-64.5 141.5t-7 180zM432 1679 q1 46 30 76.5t76 32.5q47 1 77.5 -28.5t29.5 -76.5q0 -46 -30 -76t-77 -32q-47 -1 -76.5 28t-29.5 76zM849 1677q1 46 30 77t76 33q48 1 78 -28.5t29 -77.5q0 -47 -30 -76.5t-77 -31.5q-46 -1 -76.5 28t-29.5 76z" />
<glyph unicode="&#xdd;" horiz-adv-x="1052" d="M182 1456h194l161 -729l416 729h211l-567 -924l-92 -532h-179l97 554zM584 1550l234 294h230l-306 -294h-158z" />
<glyph unicode="&#xde;" horiz-adv-x="1033" d="M45 0l253 1456h173l-52 -293l199 -1q89 -3 156.5 -36t111 -89t62.5 -130.5t12 -160.5q-8 -96 -45.5 -176t-98 -137.5t-142.5 -89t-179 -31.5l-222 1l-55 -313h-173zM298 465l201 -2q61 1 111.5 23t87 60t59.5 89t30 110q6 48 0.5 94.5t-25.5 83.5t-56 60.5t-91 26.5 l-213 2l-2 1z" />
<glyph unicode="&#xdf;" horiz-adv-x="1047" d="M24 0l190 1111q11 81 38 161t73.5 144t115 102.5t163.5 36.5q73 -2 127 -27.5t88.5 -69.5t49.5 -103.5t9 -129.5q-5 -61 -28 -112t-50.5 -99.5t-53 -97.5t-34.5 -106q-8 -45 4 -84.5t34 -77.5t49.5 -74.5t51.5 -75.5t39 -81.5t12 -90.5q-5 -77 -31.5 -141.5t-72.5 -111 t-110.5 -71.5t-143.5 -23q-63 1 -128.5 19t-116.5 56l56 154q36 -32 81.5 -55t95.5 -23q43 0 77.5 13.5t59.5 38t41 58.5t21 75q6 47 -7 87.5t-36 78.5t-51 75.5t-51 77t-37 83t-9 94.5q5 57 30 105.5t54 95t54.5 94.5t32.5 104q4 32 2 66t-14 62t-36 47t-63 21 q-58 2 -96.5 -26.5t-63 -73t-37 -97t-18.5 -97.5l-189 -1112h-172z" />
<glyph unicode="&#xe0;" horiz-adv-x="962" d="M58 287q6 94 47 163.5t104.5 115.5t144.5 68.5t168 22.5h129l17 115q4 39 -0.5 72t-20 56.5t-43.5 37t-71 13.5q-40 0 -73 -12t-58.5 -34.5t-42.5 -53.5t-24 -68l-171 -1q7 73 42 132.5t88 102t119.5 65t137.5 21.5q76 -1 133.5 -25.5t94.5 -68t52 -104.5t8 -136 l-88 -533q-9 -57 -7 -109.5t6 -109.5l-2 -17h-174q-6 30 -5 59t4 59q-24 -29 -51 -54.5t-57.5 -44t-65.5 -29.5t-74 -11q-69 0 -120.5 23.5t-85.5 65t-49.5 97.5t-11.5 122zM236 240q4 -31 18.5 -53.5t40.5 -35t66 -12.5q35 0 66.5 9.5t60 26.5t53 40.5t44.5 50.5l45 259 l-79 1q-54 0 -107 -12t-97 -37.5t-73.5 -67t-36.5 -101.5q-5 -37 -1 -68zM356 1534h205l143 -294h-143z" />
<glyph unicode="&#xe1;" horiz-adv-x="962" d="M58 287q6 94 47 163.5t104.5 115.5t144.5 68.5t168 22.5h129l17 115q4 39 -0.5 72t-20 56.5t-43.5 37t-71 13.5q-40 0 -73 -12t-58.5 -34.5t-42.5 -53.5t-24 -68l-171 -1q7 73 42 132.5t88 102t119.5 65t137.5 21.5q76 -1 133.5 -25.5t94.5 -68t52 -104.5t8 -136 l-88 -533q-9 -57 -7 -109.5t6 -109.5l-2 -17h-174q-6 30 -5 59t4 59q-24 -29 -51 -54.5t-57.5 -44t-65.5 -29.5t-74 -11q-69 0 -120.5 23.5t-85.5 65t-49.5 97.5t-11.5 122zM236 240q4 -31 18.5 -53.5t40.5 -35t66 -12.5q35 0 66.5 9.5t60 26.5t53 40.5t44.5 50.5l45 259 l-79 1q-54 0 -107 -12t-97 -37.5t-73.5 -67t-36.5 -101.5q-5 -37 -1 -68zM500 1240l234 294h230l-306 -294h-158z" />
<glyph unicode="&#xe2;" horiz-adv-x="962" d="M58 287q6 94 47 163.5t104.5 115.5t144.5 68.5t168 22.5h129l17 115q4 39 -0.5 72t-20 56.5t-43.5 37t-71 13.5q-40 0 -73 -12t-58.5 -34.5t-42.5 -53.5t-24 -68l-171 -1q7 73 42 132.5t88 102t119.5 65t137.5 21.5q76 -1 133.5 -25.5t94.5 -68t52 -104.5t8 -136 l-88 -533q-9 -57 -7 -109.5t6 -109.5l-2 -17h-174q-6 30 -5 59t4 59q-24 -29 -51 -54.5t-57.5 -44t-65.5 -29.5t-74 -11q-69 0 -120.5 23.5t-85.5 65t-49.5 97.5t-11.5 122zM236 240q4 -31 18.5 -53.5t40.5 -35t66 -12.5q35 0 66.5 9.5t60 26.5t53 40.5t44.5 50.5l45 259 l-79 1q-54 0 -107 -12t-97 -37.5t-73.5 -67t-36.5 -101.5q-5 -37 -1 -68zM356 1251v14l242 271h99l169 -272v-14l-138 2l-84 169l-148 -168z" />
<glyph unicode="&#xe3;" horiz-adv-x="962" d="M58 287q6 94 47 163.5t104.5 115.5t144.5 68.5t168 22.5h129l17 115q4 39 -0.5 72t-20 56.5t-43.5 37t-71 13.5q-40 0 -73 -12t-58.5 -34.5t-42.5 -53.5t-24 -68l-171 -1q7 73 42 132.5t88 102t119.5 65t137.5 21.5q76 -1 133.5 -25.5t94.5 -68t52 -104.5t8 -136 l-88 -533q-9 -57 -7 -109.5t6 -109.5l-2 -17h-174q-6 30 -5 59t4 59q-24 -29 -51 -54.5t-57.5 -44t-65.5 -29.5t-74 -11q-69 0 -120.5 23.5t-85.5 65t-49.5 97.5t-11.5 122zM236 240q4 -31 18.5 -53.5t40.5 -35t66 -12.5q35 0 66.5 9.5t60 26.5t53 40.5t44.5 50.5l45 259 l-79 1q-54 0 -107 -12t-97 -37.5t-73.5 -67t-36.5 -101.5q-5 -37 -1 -68zM315 1253q4 41 17.5 85.5t37.5 81t60 59.5t86 22q22 -1 40 -8.5t35 -19t33 -24.5t32.5 -23.5t34.5 -17.5t39 -6q22 1 38.5 11.5t28 27t19 36.5t12.5 38l107 -10q-4 -42 -17 -85.5t-36.5 -79.5 t-59 -58.5t-85.5 -21.5q-33 0 -58.5 16t-49.5 35t-49 33.5t-56 13.5q-22 -1 -38 -11.5t-27.5 -27t-19 -36t-12.5 -37.5z" />
<glyph unicode="&#xe4;" horiz-adv-x="962" d="M58 287q6 94 47 163.5t104.5 115.5t144.5 68.5t168 22.5h129l17 115q4 39 -0.5 72t-20 56.5t-43.5 37t-71 13.5q-40 0 -73 -12t-58.5 -34.5t-42.5 -53.5t-24 -68l-171 -1q7 73 42 132.5t88 102t119.5 65t137.5 21.5q76 -1 133.5 -25.5t94.5 -68t52 -104.5t8 -136 l-88 -533q-9 -57 -7 -109.5t6 -109.5l-2 -17h-174q-6 30 -5 59t4 59q-24 -29 -51 -54.5t-57.5 -44t-65.5 -29.5t-74 -11q-69 0 -120.5 23.5t-85.5 65t-49.5 97.5t-11.5 122zM236 240q4 -31 18.5 -53.5t40.5 -35t66 -12.5q35 0 66.5 9.5t60 26.5t53 40.5t44.5 50.5l45 259 l-79 1q-54 0 -107 -12t-97 -37.5t-73.5 -67t-36.5 -101.5q-5 -37 -1 -68zM314 1369q1 46 30 76.5t76 32.5q47 1 77.5 -28.5t29.5 -76.5q0 -46 -30 -76t-77 -32q-47 -1 -76.5 28t-29.5 76zM731 1367q1 46 30 77t76 33q48 1 78 -28.5t29 -77.5q0 -47 -30 -76.5t-77 -31.5 q-46 -1 -76.5 28t-29.5 76z" />
<glyph unicode="&#xe5;" horiz-adv-x="962" d="M58 287q6 94 47 163.5t104.5 115.5t144.5 68.5t168 22.5h129l17 115q4 39 -0.5 72t-20 56.5t-43.5 37t-71 13.5q-40 0 -73 -12t-58.5 -34.5t-42.5 -53.5t-24 -68l-171 -1q7 73 42 132.5t88 102t119.5 65t137.5 21.5q76 -1 133.5 -25.5t94.5 -68t52 -104.5t8 -136 l-88 -533q-9 -57 -7 -109.5t6 -109.5l-2 -17h-174q-6 30 -5 59t4 59q-24 -29 -51 -54.5t-57.5 -44t-65.5 -29.5t-74 -11q-69 0 -120.5 23.5t-85.5 65t-49.5 97.5t-11.5 122zM236 240q4 -31 18.5 -53.5t40.5 -35t66 -12.5q35 0 66.5 9.5t60 26.5t53 40.5t44.5 50.5l45 259 l-79 1q-54 0 -107 -12t-97 -37.5t-73.5 -67t-36.5 -101.5q-5 -37 -1 -68zM428 1411q1 45 18.5 84.5t47.5 69t69.5 46.5t84.5 17q42 0 78 -16t62.5 -43t41.5 -63.5t15 -78.5q-1 -45 -19 -84t-48 -67.5t-69.5 -45t-83.5 -16.5q-42 0 -78 15t-63 41.5t-42 62.5t-14 78z M524 1413q-2 -21 3.5 -41t18 -35t30.5 -24t41 -9q24 0 46.5 10t40.5 26.5t29.5 38.5t14.5 46q3 22 -2.5 42t-18 35.5t-30.5 25t-41 9.5q-25 0 -47.5 -10.5t-40.5 -27.5t-29.5 -39.5t-14.5 -46.5z" />
<glyph unicode="&#xe6;" horiz-adv-x="1456" d="M29 296q6 87 40.5 151t90 106t128.5 62.5t155 20.5l181 -1l12 86q4 34 2.5 74t-14 74.5t-38.5 57.5t-71 24q-43 1 -78 -14t-61.5 -41.5t-44 -62t-23.5 -74.5l-171 19q8 76 42 137t86.5 103t120 64t142.5 21q41 -1 79.5 -10.5t72 -28t60 -47t43.5 -67.5q29 33 61.5 61 t69 49t77 32.5t86.5 10.5q66 -2 115.5 -23.5t85 -57t57 -83.5t32.5 -101.5t12 -110.5t-6 -112l-18 -118h-579q-7 -54 -5.5 -117t20 -118t59 -92t111.5 -39q39 -1 74.5 7t69 22t64.5 33.5t61 42.5l48 -136q-29 -33 -67.5 -56t-81.5 -37t-88 -20.5t-87 -6.5q-47 1 -91 12 t-83 32.5t-71 53.5t-54 74q-72 -85 -167.5 -129.5t-207.5 -42.5q-68 1 -117.5 27t-80.5 69t-44 100t-9 120zM204 292q-4 -32 0.5 -61.5t19 -51.5t39 -35.5t59.5 -14.5q34 -1 66 9.5t62 27.5t57 38.5t50 42.5l45 248l-159 1q-46 -1 -87 -15.5t-73 -41t-53 -64t-26 -83.5z M792 640h411l5 32q7 44 6 92.5t-15.5 89.5t-46.5 68.5t-88 29.5q-61 2 -106 -29t-77 -78t-53.5 -102.5t-35.5 -102.5z" />
<glyph unicode="&#xe7;" horiz-adv-x="928" d="M74 298q-10 89 1 182l16 122q9 66 26.5 129.5t44.5 120t65 103.5t87 80.5t110 51t136 15.5q85 -2 144.5 -35t97 -87t53.5 -124t13 -147l-163 1q1 42 -4 84.5t-21.5 76.5t-47.5 56t-82 24q-76 3 -127 -27.5t-83.5 -81t-50 -114t-25.5 -126.5l-16 -123q-4 -36 -7 -75.5 t-0.5 -78t11.5 -73.5t29 -62t52 -43.5t81 -17.5q49 -2 86 14.5t64.5 46t45.5 68t28 82.5l163 1q-11 -76 -44.5 -142.5t-85.5 -116t-119.5 -77.5t-147.5 -26q-108 2 -177 46t-106 114t-47 159zM201 -446l5 108q25 2 49.5 8t44.5 18.5t33.5 32t17.5 48.5q4 27 -4.5 43 t-24.5 25t-37.5 13t-42.5 7l42 134h123l-19 -55q28 -8 46.5 -24.5t30 -38t16 -47.5t3.5 -53q-2 -60 -27 -101t-64.5 -66.5t-89.5 -37.5t-102 -14z" />
<glyph unicode="&#xe8;" horiz-adv-x="940" d="M75 463l15 122q8 64 25 127.5t44 122t64.5 108t86 86t109 56t134.5 17.5q72 -2 124.5 -24t88 -59t55.5 -86t29 -105.5t7.5 -117t-8.5 -119.5l-15 -103l-580 1l-4 -28q-9 -56 -8 -113.5t19.5 -105.5t58.5 -79t109 -32q39 -1 74.5 8t67.5 25t60.5 39t55.5 50l81 -113 q-64 -84 -158 -123t-197 -37q-105 1 -175 42t-109.5 108t-51.5 153.5t-2 179.5zM267 640l415 -1l5 26q6 46 5.5 95.5t-14.5 91t-46.5 69t-89.5 30.5q-68 3 -114.5 -24t-78 -72.5t-50.5 -102.5t-32 -112zM341 1534h205l143 -294h-143z" />
<glyph unicode="&#xe9;" horiz-adv-x="940" d="M75 463l15 122q8 64 25 127.5t44 122t64.5 108t86 86t109 56t134.5 17.5q72 -2 124.5 -24t88 -59t55.5 -86t29 -105.5t7.5 -117t-8.5 -119.5l-15 -103l-580 1l-4 -28q-9 -56 -8 -113.5t19.5 -105.5t58.5 -79t109 -32q39 -1 74.5 8t67.5 25t60.5 39t55.5 50l81 -113 q-64 -84 -158 -123t-197 -37q-105 1 -175 42t-109.5 108t-51.5 153.5t-2 179.5zM267 640l415 -1l5 26q6 46 5.5 95.5t-14.5 91t-46.5 69t-89.5 30.5q-68 3 -114.5 -24t-78 -72.5t-50.5 -102.5t-32 -112zM485 1240l234 294h230l-306 -294h-158z" />
<glyph unicode="&#xea;" horiz-adv-x="940" d="M75 463l15 122q8 64 25 127.5t44 122t64.5 108t86 86t109 56t134.5 17.5q72 -2 124.5 -24t88 -59t55.5 -86t29 -105.5t7.5 -117t-8.5 -119.5l-15 -103l-580 1l-4 -28q-9 -56 -8 -113.5t19.5 -105.5t58.5 -79t109 -32q39 -1 74.5 8t67.5 25t60.5 39t55.5 50l81 -113 q-64 -84 -158 -123t-197 -37q-105 1 -175 42t-109.5 108t-51.5 153.5t-2 179.5zM267 640l415 -1l5 26q6 46 5.5 95.5t-14.5 91t-46.5 69t-89.5 30.5q-68 3 -114.5 -24t-78 -72.5t-50.5 -102.5t-32 -112zM341 1251v14l242 271h99l169 -272v-14l-138 2l-84 169l-148 -168z" />
<glyph unicode="&#xeb;" horiz-adv-x="940" d="M75 463l15 122q8 64 25 127.5t44 122t64.5 108t86 86t109 56t134.5 17.5q72 -2 124.5 -24t88 -59t55.5 -86t29 -105.5t7.5 -117t-8.5 -119.5l-15 -103l-580 1l-4 -28q-9 -56 -8 -113.5t19.5 -105.5t58.5 -79t109 -32q39 -1 74.5 8t67.5 25t60.5 39t55.5 50l81 -113 q-64 -84 -158 -123t-197 -37q-105 1 -175 42t-109.5 108t-51.5 153.5t-2 179.5zM267 640l415 -1l5 26q6 46 5.5 95.5t-14.5 91t-46.5 69t-89.5 30.5q-68 3 -114.5 -24t-78 -72.5t-50.5 -102.5t-32 -112zM299 1369q1 46 30 76.5t76 32.5q47 1 77.5 -28.5t29.5 -76.5 q0 -46 -30 -76t-77 -32q-47 -1 -76.5 28t-29.5 76zM716 1367q1 46 30 77t76 33q48 1 78 -28.5t29 -77.5q0 -47 -30 -76.5t-77 -31.5q-46 -1 -76.5 28t-29.5 76z" />
<glyph unicode="&#xec;" horiz-adv-x="477" d="M37 0l188 1082h173l-188 -1082h-173zM95 1533h205l143 -294h-143z" />
<glyph unicode="&#xed;" horiz-adv-x="477" d="M37 0l188 1082h173l-188 -1082h-173zM238 1239l234 294h230l-306 -294h-158z" />
<glyph unicode="&#xee;" horiz-adv-x="477" d="M37 0l188 1082h173l-188 -1082h-173zM95 1250v14l242 271h99l169 -272v-14l-138 2l-84 169l-148 -168z" />
<glyph unicode="&#xef;" horiz-adv-x="477" d="M37 0l188 1082h173l-188 -1082h-173zM53 1368q1 46 30 76.5t76 32.5q47 1 77.5 -28.5t29.5 -76.5q0 -46 -30 -76t-77 -32q-47 -1 -76.5 28t-29.5 76zM470 1366q1 46 30 77t76 33q48 1 78 -28.5t29 -77.5q0 -47 -30 -76.5t-77 -31.5q-46 -1 -76.5 28t-29.5 76z" />
<glyph unicode="&#xf0;" horiz-adv-x="1029" d="M93 459q6 58 21.5 120t41.5 120.5t62 110t83 89.5t104.5 59.5t126.5 19.5q63 -2 115 -29t94 -72q2 168 -77 316l-203 -144l-53 110l179 125q-48 50 -106 82.5t-123 55.5l68 157q88 -27 164.5 -74t139.5 -115l180 127l53 -110l-158 -107q77 -160 98 -326t-3 -341l-14 -98 q-9 -61 -26.5 -126.5t-45.5 -128t-66 -118t-87 -97t-110 -65t-134 -21.5q-95 3 -160.5 47.5t-104.5 113.5t-53 153t-6 166zM263 393.5q0 -35.5 5 -71.5t16.5 -70t31 -61t48 -43.5t68.5 -18.5q48 -2 86 17t67.5 52.5t51.5 76.5t37 89t24.5 90.5t14.5 80.5l13 101q2 16 3 31.5 t3 31.5q-20 58 -62.5 91t-105.5 36q-49 2 -89 -13.5t-71.5 -42.5t-55.5 -64t-40.5 -78.5t-27 -85t-14.5 -83.5q-3 -30 -3 -65.5z" />
<glyph unicode="&#xf1;" horiz-adv-x="971" d="M23 0l188 1082l162 1l-23 -118q52 61 118.5 99.5t149.5 37.5q81 -1 129.5 -38t73 -94t29 -126t-2.5 -135l-118 -709h-172l119 712q4 38 4 79t-11.5 75.5t-38.5 57t-76 23.5q-38 1 -70.5 -13t-60 -37t-50 -52t-41.5 -58l-136 -787h-173zM306 1253q4 41 17.5 85.5t37.5 81 t60 59.5t86 22q22 -1 40 -8.5t35 -19t33 -24.5t32.5 -23.5t34.5 -17.5t39 -6q22 1 38.5 11.5t28 27t19 36.5t12.5 38l107 -10q-4 -42 -17 -85.5t-36.5 -79.5t-59 -58.5t-85.5 -21.5q-33 0 -58.5 16t-49.5 35t-49 33.5t-56 13.5q-22 -1 -38 -11.5t-27.5 -27t-19 -36 t-12.5 -37.5z" />
<glyph unicode="&#xf2;" horiz-adv-x="1007" d="M76 489l12 100q9 64 27.5 127.5t47.5 121.5t68.5 107.5t89.5 85t111.5 54.5t134.5 17q104 -3 173 -49.5t107.5 -119t50.5 -162.5t2 -180l-12 -102q-9 -64 -27.5 -127.5t-47.5 -120.5t-68.5 -106t-89.5 -84t-111.5 -54t-134.5 -17q-104 3 -173 49t-108 118.5t-50.5 162.5 t-1.5 179zM243 415.5q-1 -38.5 3 -78t15 -76t31 -65t51 -46.5t76 -20q76 -3 128.5 29t87 84.5t53.5 117.5t27 128l13 103q3 33 4.5 72t-2.5 78.5t-15 76t-31.5 65.5t-51.5 47t-76 20q-48 2 -87 -13t-70 -42t-54.5 -63.5t-40 -77t-27.5 -83t-16 -81.5l-13 -103 q-4 -34 -5 -72.5zM349 1534h205l143 -294h-143z" />
<glyph unicode="&#xf3;" horiz-adv-x="1007" d="M76 489l12 100q9 64 27.5 127.5t47.5 121.5t68.5 107.5t89.5 85t111.5 54.5t134.5 17q104 -3 173 -49.5t107.5 -119t50.5 -162.5t2 -180l-12 -102q-9 -64 -27.5 -127.5t-47.5 -120.5t-68.5 -106t-89.5 -84t-111.5 -54t-134.5 -17q-104 3 -173 49t-108 118.5t-50.5 162.5 t-1.5 179zM243 415.5q-1 -38.5 3 -78t15 -76t31 -65t51 -46.5t76 -20q76 -3 128.5 29t87 84.5t53.5 117.5t27 128l13 103q3 33 4.5 72t-2.5 78.5t-15 76t-31.5 65.5t-51.5 47t-76 20q-48 2 -87 -13t-70 -42t-54.5 -63.5t-40 -77t-27.5 -83t-16 -81.5l-13 -103 q-4 -34 -5 -72.5zM493 1240l234 294h230l-306 -294h-158z" />
<glyph unicode="&#xf4;" horiz-adv-x="1007" d="M76 489l12 100q9 64 27.5 127.5t47.5 121.5t68.5 107.5t89.5 85t111.5 54.5t134.5 17q104 -3 173 -49.5t107.5 -119t50.5 -162.5t2 -180l-12 -102q-9 -64 -27.5 -127.5t-47.5 -120.5t-68.5 -106t-89.5 -84t-111.5 -54t-134.5 -17q-104 3 -173 49t-108 118.5t-50.5 162.5 t-1.5 179zM243 415.5q-1 -38.5 3 -78t15 -76t31 -65t51 -46.5t76 -20q76 -3 128.5 29t87 84.5t53.5 117.5t27 128l13 103q3 33 4.5 72t-2.5 78.5t-15 76t-31.5 65.5t-51.5 47t-76 20q-48 2 -87 -13t-70 -42t-54.5 -63.5t-40 -77t-27.5 -83t-16 -81.5l-13 -103 q-4 -34 -5 -72.5zM349 1251v14l242 271h99l169 -272v-14l-138 2l-84 169l-148 -168z" />
<glyph unicode="&#xf5;" horiz-adv-x="1007" d="M76 489l12 100q9 64 27.5 127.5t47.5 121.5t68.5 107.5t89.5 85t111.5 54.5t134.5 17q104 -3 173 -49.5t107.5 -119t50.5 -162.5t2 -180l-12 -102q-9 -64 -27.5 -127.5t-47.5 -120.5t-68.5 -106t-89.5 -84t-111.5 -54t-134.5 -17q-104 3 -173 49t-108 118.5t-50.5 162.5 t-1.5 179zM243 415.5q-1 -38.5 3 -78t15 -76t31 -65t51 -46.5t76 -20q76 -3 128.5 29t87 84.5t53.5 117.5t27 128l13 103q3 33 4.5 72t-2.5 78.5t-15 76t-31.5 65.5t-51.5 47t-76 20q-48 2 -87 -13t-70 -42t-54.5 -63.5t-40 -77t-27.5 -83t-16 -81.5l-13 -103 q-4 -34 -5 -72.5zM308 1253q4 41 17.5 85.5t37.5 81t60 59.5t86 22q22 -1 40 -8.5t35 -19t33 -24.5t32.5 -23.5t34.5 -17.5t39 -6q22 1 38.5 11.5t28 27t19 36.5t12.5 38l107 -10q-4 -42 -17 -85.5t-36.5 -79.5t-59 -58.5t-85.5 -21.5q-33 0 -58.5 16t-49.5 35t-49 33.5 t-56 13.5q-22 -1 -38 -11.5t-27.5 -27t-19 -36t-12.5 -37.5z" />
<glyph unicode="&#xf6;" horiz-adv-x="1007" d="M76 489l12 100q9 64 27.5 127.5t47.5 121.5t68.5 107.5t89.5 85t111.5 54.5t134.5 17q104 -3 173 -49.5t107.5 -119t50.5 -162.5t2 -180l-12 -102q-9 -64 -27.5 -127.5t-47.5 -120.5t-68.5 -106t-89.5 -84t-111.5 -54t-134.5 -17q-104 3 -173 49t-108 118.5t-50.5 162.5 t-1.5 179zM243 415.5q-1 -38.5 3 -78t15 -76t31 -65t51 -46.5t76 -20q76 -3 128.5 29t87 84.5t53.5 117.5t27 128l13 103q3 33 4.5 72t-2.5 78.5t-15 76t-31.5 65.5t-51.5 47t-76 20q-48 2 -87 -13t-70 -42t-54.5 -63.5t-40 -77t-27.5 -83t-16 -81.5l-13 -103 q-4 -34 -5 -72.5zM307 1369q1 46 30 76.5t76 32.5q47 1 77.5 -28.5t29.5 -76.5q0 -46 -30 -76t-77 -32q-47 -1 -76.5 28t-29.5 76zM724 1367q1 46 30 77t76 33q48 1 78 -28.5t29 -77.5q0 -47 -30 -76.5t-77 -31.5q-46 -1 -76.5 28t-29.5 76z" />
<glyph unicode="&#xf7;" horiz-adv-x="1003" d="M76 600l32 184h816l-33 -184h-815zM329 278q1 47 28 80.5t76 35.5q24 1 43 -7.5t32.5 -23.5t20.5 -35.5t7 -43.5q-1 -47 -28.5 -79t-75.5 -34q-24 -1 -43 7t-32.5 22.5t-20.5 34.5t-7 43zM470 1095q1 47 28 80.5t76 35.5q24 1 43.5 -7.5t33 -23.5t20.5 -35.5t7 -43.5 q-1 -47 -29 -79t-76 -34q-24 -1 -43 7t-32.5 22.5t-20.5 34.5t-7 43z" />
<glyph unicode="&#xf8;" horiz-adv-x="1001" d="M46 -135l126 219q-33 37 -54.5 84.5t-33 100t-13 108.5t4.5 112l12 100q9 64 27.5 127.5t47.5 121.5t68.5 107.5t89.5 85t111.5 54.5t134.5 17q50 -2 90.5 -13.5t74.5 -31.5l88 152h120l-128 -222q30 -38 50 -84.5t30 -98t12 -105.5t-4 -108l-12 -102 q-9 -64 -27.5 -127.5t-47.5 -120.5t-68.5 -106t-89.5 -84t-111.5 -54t-134.5 -17q-46 2 -84.5 11.5t-70.5 26.5l-88 -153h-120zM243.5 368.5q1.5 -31.5 6.5 -62.5t16 -59l386 670q-19 15 -42.5 23.5t-53.5 10.5q-48 2 -87 -13t-70 -42t-54.5 -63.5t-40 -77t-27.5 -83 t-16 -81.5l-13 -103q-3 -27 -4.5 -57.5t0 -62zM333 156q17 -11 38.5 -18t47.5 -8q76 -3 128.5 29t87 84.5t53.5 117.5t27 128l13 103q3 25 4 53t0 57.5t-5 59t-12 56.5z" />
<glyph unicode="&#xf9;" horiz-adv-x="970" d="M87 291.5q0 46.5 5 91.5l117 699h171l-116 -702q-3 -32 -4.5 -73t7.5 -78t31.5 -63.5t67.5 -28.5q80 -4 138.5 36.5t99.5 106.5l138 802h173l-187 -1082h-163l19 95q-51 -58 -116 -88t-143 -28q-55 1 -95 19t-67.5 48t-44 70t-24 84.5t-7.5 91zM341 1534h205l143 -294 h-143z" />
<glyph unicode="&#xfa;" horiz-adv-x="970" d="M87 291.5q0 46.5 5 91.5l117 699h171l-116 -702q-3 -32 -4.5 -73t7.5 -78t31.5 -63.5t67.5 -28.5q80 -4 138.5 36.5t99.5 106.5l138 802h173l-187 -1082h-163l19 95q-51 -58 -116 -88t-143 -28q-55 1 -95 19t-67.5 48t-44 70t-24 84.5t-7.5 91zM485 1240l234 294h230 l-306 -294h-158z" />
<glyph unicode="&#xfb;" horiz-adv-x="970" d="M87 291.5q0 46.5 5 91.5l117 699h171l-116 -702q-3 -32 -4.5 -73t7.5 -78t31.5 -63.5t67.5 -28.5q80 -4 138.5 36.5t99.5 106.5l138 802h173l-187 -1082h-163l19 95q-51 -58 -116 -88t-143 -28q-55 1 -95 19t-67.5 48t-44 70t-24 84.5t-7.5 91zM341 1251v14l242 271h99 l169 -272v-14l-138 2l-84 169l-148 -168z" />
<glyph unicode="&#xfc;" horiz-adv-x="970" d="M87 291.5q0 46.5 5 91.5l117 699h171l-116 -702q-3 -32 -4.5 -73t7.5 -78t31.5 -63.5t67.5 -28.5q80 -4 138.5 36.5t99.5 106.5l138 802h173l-187 -1082h-163l19 95q-51 -58 -116 -88t-143 -28q-55 1 -95 19t-67.5 48t-44 70t-24 84.5t-7.5 91zM299 1369q1 46 30 76.5 t76 32.5q47 1 77.5 -28.5t29.5 -76.5q0 -46 -30 -76t-77 -32q-47 -1 -76.5 28t-29.5 76zM716 1367q1 46 30 77t76 33q48 1 78 -28.5t29 -77.5q0 -47 -30 -76.5t-77 -31.5q-46 -1 -76.5 28t-29.5 76z" />
<glyph unicode="&#xfd;" horiz-adv-x="837" d="M-88 -422l17 150q17 -4 37 -6q45 -2 80 11.5t62 38t47 58t36 71.5l52 119l-122 1062h182l56 -785l328 785h189l-560 -1250q-20 -48 -48.5 -97t-66 -88.5t-85 -64t-106.5 -22.5q-25 1 -49.5 6.5t-48.5 11.5zM438 1240l234 294h230l-306 -294h-158z" />
<glyph unicode="&#xfe;" horiz-adv-x="1020" d="M-39 -416l72 416h-1l267 1536h173l-96 -549q48 54 107 86t136 30q70 -1 119 -24.5t81 -62.5t50 -90t25 -107.5t5 -115.5t-8 -113l-13 -100q-8 -60 -21.5 -121.5t-36 -118.5t-54 -107.5t-75.5 -87.5t-100.5 -57.5t-128.5 -18.5q-73 2 -132.5 32.5t-99.5 92.5l-97 -520 h-172zM250 254q23 -57 63 -89t103 -35q76 -3 128.5 29t86 84.5t51 117.5t25.5 128l13 103q4 34 6.5 73.5t0 79t-11.5 75.5t-28.5 63.5t-51 44.5t-78.5 18q-35 1 -65 -9t-55.5 -27t-48 -40.5t-41.5 -49.5l-29 -171z" />
<glyph unicode="&#xff;" horiz-adv-x="837" d="M-88 -422l17 150q17 -4 37 -6q45 -2 80 11.5t62 38t47 58t36 71.5l52 119l-122 1062h182l56 -785l328 785h189l-560 -1250q-20 -48 -48.5 -97t-66 -88.5t-85 -64t-106.5 -22.5q-25 1 -49.5 6.5t-48.5 11.5zM252 1369q1 46 30 76.5t76 32.5q47 1 77.5 -28.5t29.5 -76.5 q0 -46 -30 -76t-77 -32q-47 -1 -76.5 28t-29.5 76zM669 1367q1 46 30 77t76 33q48 1 78 -28.5t29 -77.5q0 -47 -30 -76.5t-77 -31.5q-46 -1 -76.5 28t-29.5 76z" />
<glyph unicode="&#x152;" horiz-adv-x="1652" d="M95.5 441.5q-2.5 68.5 6.5 134.5l48 304q11 72 33 145t55.5 139.5t78.5 124.5t102.5 100t127 66t152.5 24q61 0 121 -7.5t120 -15.5h687l-28 -158h-572l-82 -468h500l-27 -157h-499l-90 -516h582l-28 -157h-684v-1q-57 -8 -114 -14t-115 -4q-78 2 -138.5 28.5t-104 71 t-72 103t-43 124t-17 134zM266.5 486q-2.5 -48 1 -96.5t16 -94t36.5 -80.5t62 -57t94 -24q43 -2 86 1.5t86 10.5l202 1167q-38 8 -77.5 11.5t-78.5 4.5q-61 0 -110 -18.5t-87.5 -51t-68 -76.5t-50.5 -94t-34.5 -103t-21.5 -104l-48 -307q-5 -41 -7.5 -89z" />
<glyph unicode="&#x153;" horiz-adv-x="1554" d="M82.5 403q-1.5 62 5.5 119l2 23q8 63 25.5 130t45 129.5t66 117.5t88.5 95.5t112 63.5t137 21q49 -1 93.5 -15t81.5 -39.5t66 -61.5t47 -82q30 39 64.5 75.5t74.5 64t86 44t99 15.5q66 -1 116 -22t85 -56.5t56.5 -82.5t32.5 -100.5t11.5 -110.5t-6.5 -112l-18 -122h-567 q-4 -32 -6 -71t1 -79t13 -78t29.5 -68t49.5 -49t75 -21q75 -2 140.5 27.5t119.5 78.5l58 -127q-30 -35 -68 -60t-80 -40.5t-87 -22.5t-90 -6q-49 1 -94 14t-83 37.5t-68 59.5t-49 80q-32 -42 -68.5 -78t-79 -62t-91 -40t-103.5 -13q-71 2 -124 27t-90.5 66t-60.5 95 t-34.5 114t-13 122zM254 365.5q2 -43.5 10 -85t26.5 -75t49 -54.5t76.5 -23q50 -2 89.5 16.5t70 50.5t52.5 74t37.5 87.5t25 90.5t14.5 84l2 22q4 32 6.5 73t1 85t-10 86t-27 76t-49.5 55t-77 23q-50 2 -89.5 -16.5t-70 -51t-52.5 -75t-37 -88t-24.5 -91.5t-14.5 -84l-2 -23 q-4 -31 -6.5 -72t-0.5 -84.5zM906 649l394 -1l5 28q6 42 5 89.5t-16 88.5t-46.5 68.5t-85.5 29.5q-56 1 -98 -30t-72.5 -77.5t-51.5 -100t-34 -95.5z" />
<glyph unicode="&#x178;" horiz-adv-x="1052" d="M182 1456h194l161 -729l416 729h211l-567 -924l-92 -532h-179l97 554zM398 1679q1 46 30 76.5t76 32.5q47 1 77.5 -28.5t29.5 -76.5q0 -46 -30 -76t-77 -32q-47 -1 -76.5 28t-29.5 76zM815 1677q1 46 30 77t76 33q48 1 78 -28.5t29 -77.5q0 -47 -30 -76.5t-77 -31.5 q-46 -1 -76.5 28t-29.5 76z" />
<glyph unicode="&#x2c6;" horiz-adv-x="861" d="M276 1251v14l242 271h99l169 -272v-14l-138 2l-84 169l-148 -168z" />
<glyph unicode="&#x2dc;" horiz-adv-x="859" d="M227 1249q4 41 17.5 85.5t37.5 81t60 59.5t86 22q22 -1 40 -8.5t35 -19t33 -24.5t32.5 -23.5t34.5 -17.5t39 -6q22 1 38.5 11.5t28 27t19 36.5t12.5 38l107 -10q-4 -42 -17 -85.5t-36.5 -79.5t-59 -58.5t-85.5 -21.5q-33 0 -58.5 16t-49.5 35t-49 33.5t-56 13.5 q-22 -1 -38 -11.5t-27.5 -27t-19 -36t-12.5 -37.5z" />
<glyph unicode="&#x2000;" horiz-adv-x="969" />
<glyph unicode="&#x2001;" horiz-adv-x="1938" />
<glyph unicode="&#x2002;" horiz-adv-x="969" />
<glyph unicode="&#x2003;" horiz-adv-x="1938" />
<glyph unicode="&#x2004;" horiz-adv-x="646" />
<glyph unicode="&#x2005;" horiz-adv-x="484" />
<glyph unicode="&#x2006;" horiz-adv-x="323" />
<glyph unicode="&#x2007;" horiz-adv-x="323" />
<glyph unicode="&#x2008;" horiz-adv-x="242" />
<glyph unicode="&#x2009;" horiz-adv-x="387" />
<glyph unicode="&#x200a;" horiz-adv-x="107" />
<glyph unicode="&#x2010;" horiz-adv-x="503" d="M35 543l27 151h402l-27 -151h-402z" />
<glyph unicode="&#x2011;" horiz-adv-x="503" d="M35 543l27 151h402l-27 -151h-402z" />
<glyph unicode="&#x2012;" horiz-adv-x="503" d="M35 543l27 151h402l-27 -151h-402z" />
<glyph unicode="&#x2013;" horiz-adv-x="1147" d="M166 651l32 151h818l-32 -151h-818z" />
<glyph unicode="&#x2014;" horiz-adv-x="1357" d="M167 651l43 151h1090l-42 -151h-1091z" />
<glyph unicode="&#x2018;" horiz-adv-x="396" d="M179 1073l18 118q17 107 71 201t137 163l94 -74q-47 -66 -80.5 -135.5t-47.5 -149.5l-22 -123h-170z" />
<glyph unicode="&#x2019;" horiz-adv-x="396" d="M145 1120q46 66 79.5 135.5t47.5 149.5l23 131h171l-20 -126q-17 -108 -70.5 -201.5t-137.5 -162.5z" />
<glyph unicode="&#x201a;" horiz-adv-x="397" d="M-93 -208q46 66 78.5 135t47.5 148l19 106h172l-16 -101q-17 -107 -71 -200.5t-136 -162.5z" />
<glyph unicode="&#x201c;" horiz-adv-x="673" d="M188 1073l18 118q17 107 71 201t137 163l94 -74q-47 -66 -80.5 -135.5t-47.5 -149.5l-22 -123h-170zM464 1073l18 118q17 107 71 201t137 163l94 -74q-47 -66 -80.5 -135.5t-47.5 -149.5l-22 -123h-170z" />
<glyph unicode="&#x201d;" horiz-adv-x="680" d="M157 1120q46 66 79.5 135.5t47.5 149.5l23 131h171l-20 -126q-17 -108 -70.5 -201.5t-137.5 -162.5zM426 1120q46 66 79.5 135.5t47.5 149.5l23 131h171l-20 -126q-17 -108 -70.5 -201.5t-137.5 -162.5z" />
<glyph unicode="&#x201e;" horiz-adv-x="658" d="M-96 -227q47 70 80.5 144t48.5 158l30 171h172l-27 -167q-18 -110 -71.5 -208.5t-138.5 -171.5zM165 -227q47 70 80.5 144t48.5 158l30 171h172l-27 -167q-18 -111 -72 -209t-139 -171z" />
<glyph unicode="&#x2022;" horiz-adv-x="679" d="M159 733l3 60q3 43 19.5 80t44.5 64t65 41.5t82 14.5q43 -1 77.5 -16t58.5 -41t36 -61.5t12 -77.5l-2 -64q-3 -44 -19 -81t-43.5 -63.5t-65 -41t-82.5 -13.5q-44 1 -78.5 16t-58.5 41.5t-37 63t-12 78.5z" />
<glyph unicode="&#x2026;" horiz-adv-x="1183" d="M52 94q0 49 31 81.5t80 34.5q49 1 81 -30t31 -80t-33 -79.5t-80 -32.5q-24 -1 -44.5 6.5t-35 21.5t-22.5 34t-8 44zM415 94q0 49 31 81.5t80 34.5q49 1 81 -30t31 -80t-33 -79.5t-80 -32.5q-24 -1 -44.5 6.5t-35 21.5t-22.5 34t-8 44zM760 94q0 49 31 81.5t80 34.5 q49 1 81 -30t31 -80t-33 -79.5t-80 -32.5q-24 -1 -44.5 6.5t-35 21.5t-22.5 34t-8 44z" />
<glyph unicode="&#x202f;" horiz-adv-x="387" />
<glyph unicode="&#x2039;" horiz-adv-x="550" d="M98 540l2 20l303 389h137l-281 -410l132 -386h-114z" />
<glyph unicode="&#x203a;" horiz-adv-x="550" d="M6 152l281 408l-132 389h116l179 -388l-2 -20l-303 -389h-139z" />
<glyph unicode="&#x205f;" horiz-adv-x="484" />
<glyph unicode="&#x20ac;" d="M89 541l22 124h141l24 137h-141l21 125h135q15 70 37 138t54 129.5t73.5 114t95.5 90.5t120 59t147 20q53 -1 103.5 -10.5t101.5 -22.5l-37 -162q-42 17 -85 27t-88 11q-83 2 -141.5 -34t-98 -93.5t-64.5 -128t-40 -138.5h310l-23 -125h-301l-24 -137h302l-22 -124h-303 q-5 -37 -6.5 -81t2.5 -88.5t15.5 -85.5t33.5 -73.5t57 -52.5t86 -21q48 -2 92.5 7.5t89.5 24.5l6 -163q-98 -27 -196 -26q-76 2 -134.5 26t-100.5 64.5t-68.5 95t-40 116t-14.5 127.5t8 131z" />
<glyph unicode="&#x2122;" horiz-adv-x="1097" d="M236 1375l14 81h315l-15 -81h-116l-80 -456h-80l79 456h-117zM533 919l93 537h96l43 -397l181 397h103l-94 -537h-80l67 378l-171 -378h-44l-44 400l-71 -400h-79z" />
<glyph unicode="&#x25fc;" horiz-adv-x="1080" d="M0 0v1080h1080v-1080h-1080z" />
<glyph unicode="&#xfb02;" horiz-adv-x="1104" d="M99 0l163 939h-137l25 143h137l15 114q10 75 36 141.5t69.5 116t105.5 78t144 27.5q29 -1 56.5 -6t55.5 -13l-25 -149q-20 5 -40 8t-40 4q-44 0 -76.5 -17.5t-55 -47t-36 -66.5t-19.5 -76l-18 -114h180l-25 -143h-179l-163 -939h-173zM676 0l267 1536h173l-267 -1536 h-173z" />
<glyph unicode="&#xfb03;" horiz-adv-x="1622" d="M99 0l163 939h-137l25 143h137l15 114q10 75 36 141.5t69.5 116t105.5 78t144 27.5q29 -1 56.5 -6t55.5 -13l-25 -149q-20 5 -40 8t-40 4q-44 0 -76.5 -17.5t-55 -47t-36 -66.5t-19.5 -76l-18 -114h180l-25 -143h-179l-163 -939h-173zM710 0l163 939h-137l25 143h136 l13 94q11 81 40 151.5t77.5 122.5t116 81.5t155.5 27.5q63 -2 121 -21.5t115 -42.5l-46 -155q-42 24 -89 38.5t-97 14.5q-52 1 -90 -15t-64 -45t-41.5 -69t-22.5 -88l-14 -94h170l-25 -143h-169l-163 -939h-174zM1188 0l188 1082h174l-188 -1082h-174z" />
<glyph unicode="&#xfb04;" horiz-adv-x="1743" d="M99 0l163 939h-137l25 143h137l15 114q10 75 36 141.5t69.5 116t105.5 78t144 27.5q29 -1 56.5 -6t55.5 -13l-25 -149q-20 5 -40 8t-40 4q-44 0 -76.5 -17.5t-55 -47t-36 -66.5t-19.5 -76l-18 -114h180l-25 -143h-179l-163 -939h-173zM738 0l163 939h-137l25 143h137 l15 114q10 75 36 141.5t69.5 116t105.5 78t144 27.5q29 -1 56.5 -6t55.5 -13l-25 -149q-20 5 -40 8t-40 4q-44 0 -76.5 -17.5t-55 -47t-36 -66.5t-19.5 -76l-18 -114h180l-25 -143h-179l-163 -939h-173zM1315 0l267 1536h173l-267 -1536h-173z" />
</font>
</defs>
</svg>
