<?xml version="1.0" standalone="no"?>
<!DOCTYPE svg PUBLIC "-//W3C//DTD SVG 1.1//EN" "http://www.w3.org/Graphics/SVG/1.1/DTD/svg11.dtd" >
<svg xmlns="http://www.w3.org/2000/svg">
<metadata></metadata>
<defs>
<font id="yanone_kaffeesatzextra_light" horiz-adv-x="921" >
<font-face units-per-em="2048" ascent="1638" descent="-410" />
<missing-glyph horiz-adv-x="389" />
<glyph unicode="&#xfb01;" horiz-adv-x="798" d="M23 975q0 35 2.5 42t17.5 7h154v137q0 70 11 126t28 92.5t44.5 63t53 40.5t61.5 21.5t61.5 9.5t61.5 2q76 0 125 -13.5t49 -32.5q0 -10 -8 -30q-80 26 -170 26q-43 0 -74 -4t-70 -22t-64 -50t-42.5 -92.5t-17.5 -144.5v-129h209q0 -34 -3 -41.5t-18 -7.5h-188v-955 q0 -2 -1 -5.5t-6 -9t-14 -5.5h-28v975h-174zM608 0v993q0 22 9 26.5t40 4.5v-1004v-4q0 -12 -6.5 -14t-42.5 -2z" />
<glyph unicode="&#xfb02;" horiz-adv-x="819" d="M20 975q0 34 3 41.5t18 7.5h154v137q0 70 11 125.5t27.5 91.5t42.5 62.5t49 39.5t55 20.5t52.5 9t48.5 1.5q114 0 195 -41v-1450q0 -2 -1 -5.5t-6 -9t-14 -5.5h-28v1438q-65 24 -150 24q-25 0 -40.5 -1t-43 -7t-45 -17t-39.5 -33.5t-34.5 -54.5t-21.5 -82t-9 -114v-129 h250q0 -34 -3 -41.5t-18 -7.5h-229v-955q0 -2 -1 -5.5t-6 -9t-14 -5.5h-28v975h-175z" />
<glyph horiz-adv-x="0" />
<glyph horiz-adv-x="682" />
<glyph unicode="&#xd;" horiz-adv-x="389" />
<glyph unicode=" "  horiz-adv-x="389" />
<glyph unicode="&#x09;" horiz-adv-x="389" />
<glyph unicode="&#xa0;" horiz-adv-x="389" />
<glyph unicode="!" horiz-adv-x="372" d="M129 55q0 26 15 44t40 18q26 0 43 -18.5t17 -43.5q0 -28 -17 -45.5t-43 -17.5t-40.5 17.5t-14.5 45.5zM164 336v1098q0 14 49 14v-1090q0 -22 -49 -22z" />
<glyph unicode="&#x22;" horiz-adv-x="446" d="M82 1475q0 128 8 131q4 2 19 2l36 -2q2 -14 2 -58q0 -59 -5 -143.5t-10.5 -144t-8.5 -62.5t-10.5 -3.5t-14.5 0.5l-6 1q-10 72 -10 279zM299 1475q0 128 8 131q4 2 19 2l36 -2q3 -21 3 -58q0 -59 -5 -143.5t-11 -144t-9 -62.5t-10.5 -3.5t-13.5 0.5l-7 1q-10 72 -10 279z " />
<glyph unicode="#" d="M102 428q0 34 3 41.5t18 7.5h133l14 299h-168q0 34 3 41.5t18 7.5h151l9 172q1 15 9 18t42 3l-10 -193h276l8 172q1 15 9 18t42 3l-10 -193h170q0 -35 -2.5 -42t-17.5 -7h-152l-16 -299h188q0 -35 -2.5 -42t-17.5 -7h-170l-11 -188q-1 -15 -9 -18t-42 -3l11 209h-275 l-10 -188q-1 -15 -9 -18t-42 -3l10 209h-150zM305 477h277l14 299h-274z" />
<glyph unicode="$" d="M168 68q0 7 9 18t20 14q73 -65 235 -65q285 0 285 274q0 76 -37 142.5t-127 148.5l-229 195q-74 67 -111 123t-37 120q0 94 75.5 155.5t207.5 70.5v213q0 20 8.5 25t36.5 5v-243q71 -1 127.5 -16t79 -28.5t22.5 -17.5q0 -10 -5.5 -24.5t-12.5 -18.5q-77 55 -232 55 q-122 0 -191 -45t-69 -137q0 -84 127 -198l258 -220q87 -78 121.5 -147t34.5 -158q0 -68 -16 -122.5t-49.5 -97.5t-89.5 -69t-132 -32v-205q0 -19 -7.5 -25t-35.5 -6v234h-6q-52 0 -97.5 7t-74 17t-49.5 22t-30 21.5t-9 14.5z" />
<glyph unicode="%" horiz-adv-x="1507" d="M164 1071q0 192 75.5 285.5t213.5 93.5q92 0 149.5 -33t90 -118t32.5 -228q0 -183 -73.5 -279t-205.5 -96q-56 0 -96 8t-77 31t-59.5 64t-36 109t-13.5 163zM213 1059q0 -93 14.5 -156t44 -98t69 -49.5t95.5 -14.5q112 0 176 86t64 246q0 185 -55 256.5t-166 71.5 q-242 0 -242 -342zM276 6l906 1444q35 -7 35 -27l-908 -1439h-2q-31 0 -31 22zM782 358q0 192 75.5 285.5t213.5 93.5q92 0 149.5 -33t90 -118t32.5 -228q0 -183 -73 -278.5t-205 -95.5q-56 0 -96 7.5t-77.5 31t-60 64t-36 108.5t-13.5 163zM831 346q0 -180 54.5 -248.5 t169.5 -68.5q112 0 175.5 85.5t63.5 245.5q0 185 -55 256.5t-166 71.5q-242 0 -242 -342z" />
<glyph unicode="&#x26;" horiz-adv-x="1077" d="M96 354q0 123 72 223t174 152q-178 281 -178 434q0 65 19.5 115.5t51.5 81.5t77.5 51t92.5 27.5t101 7.5q78 0 146.5 -15.5t102 -33.5t33.5 -31q0 -8 -2.5 -16t-5.5 -12l-2 -5q-104 68 -272 68q-47 0 -86 -5.5t-78.5 -21.5t-67 -42t-44.5 -70t-17 -103q0 -76 55.5 -193.5 t146.5 -248t185.5 -249.5t194.5 -230q63 133 63 311q0 160 -66.5 290t-164.5 181q110 10 196 10q146 0 205 -4q2 -10 2 -29q0 -10 -15 -13t-67 -3l-205 4q22 -17 46.5 -49.5t52 -86t45.5 -135.5t18 -175q0 -211 -69 -344q121 -130 176 -172q-10 -41 -33 -41q-25 0 -174 159 q-110 -161 -338 -161q-371 0 -371 374zM147 348q0 -44 7 -84.5t28.5 -85t55 -76t91.5 -52.5t134 -21q203 0 303 155q-225 247 -395 500q-91 -39 -157.5 -129.5t-66.5 -206.5z" />
<glyph unicode="'" horiz-adv-x="229" d="M82 1475q0 128 8 131q4 2 19 2l36 -2q2 -14 2 -58q0 -59 -5 -143.5t-10.5 -144t-8.5 -62.5t-10.5 -3.5t-14.5 0.5l-6 1q-10 72 -10 279z" />
<glyph unicode="(" horiz-adv-x="606" d="M154 664q0 135 20 262t52 222.5t71 180t78 142t73.5 99.5t56 61.5t25.5 19.5q11 0 25 -35q-41 -41 -80.5 -89.5t-91.5 -137t-89.5 -187t-64 -241t-26.5 -297.5q0 -166 28.5 -323t68.5 -267.5t93 -210t90.5 -152t71.5 -90.5q-3 -11 -14 -21t-19 -10q-7 0 -30 24 t-56.5 72.5t-71 114.5t-75 159.5t-68 197t-49 236.5t-18.5 270z" />
<glyph unicode=")" horiz-adv-x="606" d="M51 -379q34 38 71.5 90.5t90.5 152t93 210t68.5 267.5t28.5 323q0 155 -26.5 297.5t-64 241t-89.5 187t-91.5 137t-80.5 89.5q14 35 25 35q4 0 25.5 -19.5t56 -61.5t73.5 -99.5t78.5 -142t71.5 -180t52 -222.5t20 -262q0 -137 -19 -270t-49 -236.5t-67.5 -197 t-75.5 -159.5t-71.5 -114.5t-56.5 -72.5t-30 -24q-8 0 -19 10t-14 21z" />
<glyph unicode="*" horiz-adv-x="968" d="M53 1077q-2 22 17 42.5t34 13.5l310 -150q0 -1 1 -4t1 -4q0 -9 -6 -15.5t-15 -3.5zM174 586l242 297q6 6 12 6q11 0 21 -15l-220 -319q-5 -8 -14 -8q-11 0 -23.5 13t-17.5 26zM446 1378q0 15 27 15q18 0 37 -11l-16 -356q0 -20 -31 -14zM506 874q0 12 20 19l226 -318 q9 -12 -5.5 -28.5t-39.5 -20.5l-199 340q-2 2 -2 8zM539 973q0 14 16 20l336 137q10 -4 18.5 -17.5t8.5 -25.5q0 -15 -13 -18l-356 -119q-10 10 -10 23z" />
<glyph unicode="+" d="M104 551q0 35 3 43t18 8h313v313q0 15 8 18t43 3v-334h332v-27.5t-2.5 -14.5t-6 -8t-11.5 -1h-312v-311q0 -15 -8 -18t-43 -3v332h-334z" />
<glyph unicode="," horiz-adv-x="358" d="M109 -211q66 111 63 213q-31 19 -31 59q0 26 14.5 42t39.5 16q26 0 38.5 -14.5t12.5 -55.5q0 -51 -21.5 -120.5t-48 -117t-41.5 -47.5q-7 0 -15.5 8.5t-10.5 16.5z" />
<glyph unicode="-" horiz-adv-x="622" d="M102 551q0 35 3 43t18 8h397v-27.5t-2.5 -14.5t-6 -8t-11.5 -1h-398z" />
<glyph unicode="." horiz-adv-x="358" d="M129 55q0 26 15 44t40 18q26 0 43 -18.5t17 -43.5q0 -28 -17 -45.5t-43 -17.5t-40.5 17.5t-14.5 45.5z" />
<glyph unicode="/" horiz-adv-x="561" d="M20 -41l465 1587q4 14 14.5 17.5t41.5 3.5l-463 -1590q-4 -12 -16 -15t-42 -3z" />
<glyph unicode="0" d="M92 606q0 309 91.5 466t293.5 157q196 0 274 -147t78 -476q0 -310 -88.5 -466t-283.5 -156q-190 0 -277.5 147.5t-87.5 474.5zM141 588q0 -289 77 -422t235 -133q90 0 153.5 38t101.5 114t55 181t17 248q0 298 -67 432t-234 134q-177 0 -257.5 -149t-80.5 -443z" />
<glyph unicode="1" d="M92 0v49h359l32 1125l-305 -62q-6 35 -6 49l340 70l20 -6l-26 -1176h217l106 4v-53h-737z" />
<glyph unicode="2" d="M92 31q0 17 19 39q16 20 26 36q72 112 252 300q47 49 73 77t67 75.5t64.5 80t52 78.5t43.5 84.5t25.5 85t10.5 92.5q0 48 -8.5 81.5t-31.5 62.5t-68.5 43t-114.5 14q-234 0 -357 -88q-6 24 -6 41q0 7 14.5 18.5t44.5 25t70 25t98.5 19.5t122.5 8q89 0 146.5 -16.5t87 -52 t40.5 -79t11 -110.5q0 -49 -11.5 -99t-26.5 -91t-46.5 -91.5t-55 -84t-69 -85.5t-71.5 -80l-78 -84q-186 -198 -260 -307h501h170v-49h-729q-6 13 -6 31z" />
<glyph unicode="3" d="M111 -125q0 23 8 43q50 -39 102 -56.5t133 -17.5q177 0 289.5 138.5t112.5 341.5q0 47 -11 84.5t-27 63t-45 45t-54.5 30.5t-66 19t-69.5 11t-75 7l-5 43q306 194 306 374q0 21 -5 42.5t-19.5 47t-38 44.5t-65.5 32t-96 13q-129 0 -211 -23.5t-145 -69.5q-6 10 -6 39 q0 11 14.5 24t44.5 27t70.5 25.5t98.5 19t122 7.5q87 0 146 -19.5t88 -55t40 -73.5t11 -86q0 -55 -23 -108.5t-64.5 -101t-84 -84.5t-97.5 -76q64 -5 117 -22.5t99.5 -51.5t73 -94t26.5 -142q0 -144 -53.5 -261t-159.5 -188t-246 -71q-74 0 -130.5 15.5t-80.5 33.5t-24 31z " />
<glyph unicode="4" d="M102 389q0 76 65 226t181 323t240 287q12 10 30 10q13 -2 17 -8v-805h203q2 -5 2 -25q0 -24 -17 -24h-188v-344v-13q0 -12 -7 -14t-42 -2v373h-477q-7 4 -7 16zM154 422h432l10 745q-88 -93 -168.5 -198.5t-160.5 -256t-113 -290.5z" />
<glyph unicode="5" d="M92 -125q0 22 8 43q83 -74 246 -74q94 0 165.5 27.5t118 75.5t76.5 120t42 154.5t12 184.5q0 85 -31 148.5t-75.5 98t-105 55.5t-107.5 27t-95 6q-58 0 -116 -9t-86 -18l-29 -9l53 524h627q0 -35 -6 -42t-31 -7h-545l-45 -408q51 16 174 16q59 2 115.5 -4.5t122.5 -31 t114.5 -65.5t81.5 -116t33 -174q0 -143 -22.5 -248t-75 -187.5t-146 -124.5t-227.5 -42q-46 0 -87 5.5t-69 14.5t-49 20t-31 21.5t-10 18.5z" />
<glyph unicode="6" d="M96 580q0 180 25.5 325.5t69 242.5t104.5 162.5t129.5 94.5t146.5 29q94 0 160 -14.5t66 -35.5l-4 -36q-50 20 -97 28t-141 8q-62 0 -119.5 -28t-109.5 -87.5t-91.5 -144.5t-64 -207t-27.5 -268q48 119 144 181.5t219 62.5q149 0 238.5 -98.5t89.5 -298.5 q0 -247 -97 -380.5t-297 -133.5q-71 0 -126 19.5t-92 59t-62 90t-39 121t-19.5 143.5t-5.5 165zM143 567q0 -64 3 -115.5t11 -108.5t21.5 -100.5t36 -85t53 -68t74.5 -42.5t98 -16q167 0 255.5 119t88.5 331q0 363 -286 363q-114 0 -208 -72.5t-147 -204.5z" />
<glyph unicode="7" d="M123 1229h737q-193 -250 -359.5 -600.5t-271.5 -794.5q-49 0 -49 10q109 449 265 786t319 550h-621q-20 0 -20 49z" />
<glyph unicode="8" d="M100 367q0 138 85.5 249t209.5 160q-89 35 -135 66q-72 45 -108.5 116t-36.5 150q0 85 29.5 151.5t80 106.5t113 60t133.5 20q46 0 87.5 -6t91 -27t84.5 -55t59 -96.5t24 -145.5q0 -213 -276 -348q93 -44 149 -90q71 -58 109.5 -128.5t38.5 -180.5q0 -188 -90 -287.5 t-267 -99.5q-186 0 -283.5 103.5t-97.5 281.5zM150 365q0 -149 84.5 -242.5t246.5 -93.5q150 0 231 92t81 246q0 97 -40 162.5t-112 123.5q-50 42 -180 97q-130 -38 -220.5 -146t-90.5 -239zM162 1110q0 -148 149 -242q37 -22 113 -51q9 -4 27.5 -11t27.5 -11 q123 49 207 132.5t84 186.5q0 73 -20.5 127t-50 83.5t-72.5 46.5t-78.5 21.5t-77.5 4.5q-131 0 -220 -72t-89 -215z" />
<glyph unicode="9" d="M92 727q0 522 393 522q86 0 147 -26.5t99 -73.5t60 -125.5t30 -167t8 -213.5q0 -854 -520 -854q-65 0 -112 8t-47 21l4 37q63 -17 155 -17q220 0 340.5 182t130.5 547q-51 -111 -141 -173t-211 -62q-148 0 -242 98.5t-94 296.5zM141 741q0 -182 80 -271t215 -89 q105 0 194 70t152 196q0 67 -2.5 119.5t-10 112.5t-20 104.5t-35 87t-53.5 69.5t-75.5 43.5t-100.5 16.5q-169 0 -256.5 -115.5t-87.5 -343.5z" />
<glyph unicode=":" horiz-adv-x="358" d="M127 55q0 26 15 44t40 18q26 0 43 -18.5t17 -43.5q0 -28 -17 -45.5t-43 -17.5t-40.5 17.5t-14.5 45.5zM127 793q0 26 15 43.5t40 17.5q26 0 43 -18t17 -43q0 -28 -17 -46t-43 -18t-40.5 18t-14.5 46z" />
<glyph unicode=";" horiz-adv-x="358" d="M106 -211q67 113 64 213q-31 19 -31 59q0 26 14.5 42t39.5 16q26 0 38.5 -14.5t12.5 -55.5q0 -51 -21.5 -120.5t-48 -117t-41.5 -47.5q-7 0 -16 8.5t-11 16.5zM135 793q0 26 15 43.5t40 17.5q26 0 43 -18t17 -43q0 -28 -17 -46t-43 -18t-40.5 18t-14.5 46z" />
<glyph unicode="&#x3c;" horiz-adv-x="819" d="M102 537q0 18 21 30l561 279q16 -18 16 -35q0 -14 -12 -20l-518 -256l539 -230q0 -22 -8.5 -32.5t-16.5 -10.5q-11 0 -41 12l-530 232q-11 14 -11 31z" />
<glyph unicode="=" d="M104 387q0 35 3 43t18 8h696v-27.5t-2.5 -14.5t-6 -8t-11.5 -1h-697zM104 715q0 35 3 43t18 8h696v-27.5t-2.5 -14.5t-6 -8t-11.5 -1h-697z" />
<glyph unicode="&#x3e;" horiz-adv-x="819" d="M109 797q0 22 8 32.5t16 10.5q9 0 41 -13l531 -231q10 -13 10 -31t-21 -30l-561 -279q-16 18 -16 35q0 14 12 20l518 256z" />
<glyph unicode="?" horiz-adv-x="606" d="M63 1372q0 14 30 33t85 34t113 15q41 0 77.5 -6t76.5 -25.5t68 -50.5t46.5 -86t18.5 -127q0 -48 -12.5 -97t-27.5 -84.5t-45 -81t-47 -68t-51 -64.5q-45 -55 -71 -96q-56 -92 -56 -191q0 -25 4 -48.5t7 -35t2 -12.5q-5 -8 -21 -8q-8 0 -24 4q-17 39 -17 102q0 109 62 213 q23 40 79 107q40 49 61 77.5t50.5 78t43 100.5t13.5 106q0 66 -18.5 114t-43.5 72t-61.5 38t-60.5 17t-51 3q-133 0 -227 -70q-3 10 -3 37zM207 55q0 26 15 44t40 18q26 0 43 -18.5t17 -43.5q0 -28 -17 -45.5t-43 -17.5t-40.5 17.5t-14.5 45.5z" />
<glyph unicode="@" horiz-adv-x="1583" d="M123 543q0 864 731 864q319 0 464.5 -166t145.5 -526q0 -141 -15.5 -255.5t-38.5 -186.5t-56 -125.5t-62 -79.5t-64 -41.5t-53.5 -18t-37.5 -2.5q-82 0 -129 55q-94 -57 -242 -59h-12q-54 0 -94.5 11.5t-75.5 40.5t-53.5 85.5t-18.5 139.5q0 102 27 172.5t78 107.5 t112 52.5t143 15.5q81 0 132 -11l6 136q4 120 -50 163t-161 43q-149 0 -238 -51q-6 12 -6 29q0 16 18 29q78 43 244 43q123 0 182.5 -57.5t55.5 -190.5l-17 -475q-6 -150 -10 -179q43 -55 109 -55q15 0 32 3.5t46 19t54.5 41t54 76.5t49 119t33.5 174.5t13 236.5 q0 334 -135 487.5t-434 153.5q-122 0 -223.5 -27t-187 -88t-144.5 -155t-92 -234t-33 -319q0 -171 18.5 -305t48 -226t79.5 -157t100 -102t123 -57.5t134.5 -26t147.5 -5.5q91 0 168.5 12t137 34t95.5 39.5t78 43.5q15 -26 15 -49q0 -5 -22 -19t-66.5 -32t-101 -34.5 t-137 -28t-163.5 -11.5q-72 0 -124 3t-116 13.5t-110 29.5t-97.5 53t-86.5 82t-69 118t-54.5 159t-32.5 208t-12 262zM557 279q0 -60 12.5 -103.5t32.5 -68.5t51 -39t61 -18.5t70 -4.5q64 0 132.5 24t70.5 46l17 456q-67 13 -138 13q-69 0 -121.5 -14t-96.5 -46.5 t-67.5 -94.5t-23.5 -150z" />
<glyph unicode="A" horiz-adv-x="892" d="M20 0l410 1440q0 4 10 4q15 0 19 -4l411 -1420q0 -2 1 -5t1 -5q0 -12 -18 -12q-23 0 -33 2l-123 434h-503l-117 -422q-4 -14 -29 -14q-15 0 -29 2zM207 483h477l-135 480q-102 371 -105 407q-7 -49 -104 -407z" />
<glyph unicode="B" horiz-adv-x="839" d="M139 0v1401q0 33 49 33h207q49 0 92.5 -7t90.5 -27t80.5 -53t55 -89.5t21.5 -131.5q0 -91 -20.5 -158t-55 -102t-66.5 -51.5t-67 -22.5q28 -1 57 -7t65.5 -26t64 -51.5t46.5 -88.5t19 -130q0 -99 -18 -178.5t-44.5 -129.5t-66.5 -86.5t-74 -54t-77.5 -27.5t-66.5 -11.5 t-52 -1.5h-240zM188 49h189q352 0 352 436q0 55 -10 97.5t-25 71.5t-42.5 49t-53.5 31t-67 17t-73.5 7.5t-82.5 1.5h-187v-711zM188 809h215q62 0 110 14.5t88.5 48.5t62.5 97.5t22 154.5q0 262 -301 262h-197v-577z" />
<glyph unicode="C" horiz-adv-x="755" d="M98 637q0 156 12.5 281t33 209t52 145.5t63.5 95.5t74.5 53.5t77 25t78.5 5.5q78 0 133.5 -32.5t55.5 -61.5q0 -22 -14 -33q-10 11 -31 27.5t-64.5 34.5t-85.5 18q-38 0 -68 -5.5t-66 -24.5t-63 -52t-53.5 -91.5t-44 -139t-28 -199t-10.5 -266.5q0 -153 18 -265t45 -174 t67.5 -98t76.5 -46.5t81 -10.5q75 0 144 39.5t98 83.5q14 -23 14 -37q0 -40 -80 -88.5t-178 -48.5q-27 0 -46 1t-48.5 7.5t-50.5 18.5t-48.5 35.5t-46.5 55.5t-39 82.5t-32 113.5t-19.5 150t-7.5 191z" />
<glyph unicode="D" horiz-adv-x="894" d="M143 0v1401q0 33 50 33h206q197 0 297.5 -155t100.5 -484q0 -146 -12.5 -263.5t-33 -199.5t-52.5 -142.5t-66 -96.5t-78 -57.5t-83.5 -28.5t-88.5 -7h-240zM193 49h188q44 0 79.5 7t74.5 27t69 53.5t58 90.5t46 134t29 187t11 247q0 304 -85.5 446.5t-273.5 142.5h-196 v-1335z" />
<glyph unicode="E" horiz-adv-x="731" d="M145 0v1413q1 21 21 21h489q0 -33 -1.5 -41.5t-10.5 -8.5h-448v-573h419q0 -49 -16 -49h-403v-713h464q0 -34 -2 -41.5t-14 -7.5h-498z" />
<glyph unicode="F" horiz-adv-x="704" d="M145 0v1413q1 21 21 21h489q0 -33 -1.5 -41.5t-10.5 -8.5h-448v-571h419q0 -49 -16 -49h-403v-744q0 -2 -1 -5.5t-6 -9t-14 -5.5h-29z" />
<glyph unicode="G" horiz-adv-x="849" d="M98 709q0 179 21 311.5t56 214.5t90 132t115 68.5t138 18.5q85 0 148 -24.5t63 -55.5q0 -18 -10 -33q-81 64 -195 64q-69 0 -122 -16.5t-103 -62.5t-82 -122t-51 -201t-19 -294q0 -128 9.5 -230t25.5 -172.5t41.5 -122t52 -81t62.5 -46.5t68.5 -22.5t74.5 -5.5 q86 0 146.5 36.5t74.5 71.5v600h-256v29q0 20 21 20h285v-663q-7 -17 -23 -37t-47 -46t-85 -43t-120 -17q-68 0 -119.5 15.5t-102.5 61.5t-84 124.5t-53 212t-20 315.5z" />
<glyph unicode="H" horiz-adv-x="940" d="M139 0v1413q0 15 7 18t42 3v-621h564v600q0 14 7 17.5t42 3.5v-1414q0 -15 -6.5 -17.5t-42.5 -2.5v764h-564v-744q0 -15 -6.5 -17.5t-42.5 -2.5z" />
<glyph unicode="I" horiz-adv-x="329" d="M139 0v1401q0 24 7 28.5t44 4.5v-1414q0 -15 -7.5 -17.5t-43.5 -2.5z" />
<glyph unicode="J" horiz-adv-x="608" d="M43 72q0 23 16 39q68 -82 177 -82q38 0 67 11t48 27.5t32.5 46t20.5 55t11 66.5t4.5 69t0.5 73v1026q0 23 6 27t43 4v-1082q0 -43 -1 -70t-5.5 -70.5t-13 -71.5t-25.5 -61.5t-41 -52.5t-61 -32.5t-84 -13.5q-79 0 -137 29.5t-58 62.5z" />
<glyph unicode="K" horiz-adv-x="802" d="M139 0v1413q0 15 6.5 18t42.5 3v-617l512 615q10 2 31 2q23 0 23 -13q0 -3 -11 -18l-507 -600q146 -74 279.5 -265.5t242.5 -510.5q4 -12 4 -15q0 -14 -19 -14q-18 0 -26 2q-48 130 -96.5 235t-86.5 171.5t-82 125.5t-72.5 90.5t-70.5 71.5q-44 44 -121 76v-750 q0 -15 -6 -17.5t-43 -2.5z" />
<glyph unicode="L" horiz-adv-x="702" d="M139 0v1403q0 23 7 27t47 4v-1387h469v-27q0 -20 -21 -20h-502z" />
<glyph unicode="M" horiz-adv-x="1044" d="M139 0v1413q0 21 21 21h22l256 -834l82 -266l80 258l256 821q5 21 21 21h28v-1414q0 -15 -6 -17.5t-43 -2.5v700v545l-180 -573l-129 -387q-6 -21 -23 -21h-30l-125 408l-181 563v-514v-701q0 -15 -6 -17.5t-43 -2.5z" />
<glyph unicode="N" horiz-adv-x="962" d="M139 0v1413q0 21 21 21h24l262 -580l328 -725v793v491q0 15 6.5 18t42.5 3v-1414q0 -20 -20 -20h-25l-268 590l-322 715v-779v-506q0 -15 -6 -17.5t-43 -2.5z" />
<glyph unicode="O" horiz-adv-x="954" d="M98 727q0 384 96.5 555.5t299.5 171.5q134 0 212 -71.5t114 -229t36 -426.5q0 -271 -40.5 -435t-124 -238t-220.5 -74q-134 0 -213.5 69t-119.5 233t-40 445zM147 702q0 -247 34.5 -395t104 -213t183.5 -65q120 0 193 67.5t109 222t36 414.5q0 252 -34 399.5t-101.5 210 t-179.5 62.5q-118 0 -192 -67t-113.5 -223.5t-39.5 -412.5z" />
<glyph unicode="P" horiz-adv-x="780" d="M139 0v1413q0 21 21 21h223q75 0 134 -21t96 -56t61.5 -84t34.5 -101t10 -111q0 -207 -91 -316.5t-261 -109.5h-179v-615q0 -15 -6 -17.5t-43 -2.5zM188 684h177q153 0 229 100.5t76 276.5q0 323 -297 323h-185v-700z" />
<glyph unicode="Q" horiz-adv-x="954" d="M98 727q0 384 96.5 555.5t299.5 171.5q134 0 212 -71.5t114 -229t36 -426.5q0 -380 -80 -554t-260 -191q23 -117 54.5 -159t88.5 -42q84 0 138 35q12 -12 12 -31t-47.5 -34t-108.5 -15q-76 0 -120 56t-68 188q-131 1 -210 71t-118 233.5t-39 442.5zM147 702 q0 -247 34.5 -395t104 -213t183.5 -65q120 0 193 67.5t109 222t36 414.5q0 252 -34 399.5t-101.5 210t-179.5 62.5q-118 0 -192 -67t-113.5 -223.5t-39.5 -412.5z" />
<glyph unicode="R" horiz-adv-x="788" d="M139 0v1413q1 21 21 21h223q75 0 134 -21t96 -56t61.5 -84t34.5 -101t10 -111q0 -173 -64 -279t-186 -135q24 -34 50 -79.5t63.5 -125t68.5 -189.5t45 -228v-9q0 -9 -4 -11.5t-16 -4.5h-27q-17 116 -44.5 220t-54.5 171.5t-57.5 124t-47.5 81.5t-31 40q-14 -2 -47 -2 h-179v-615q0 -15 -6 -17.5t-43 -2.5zM188 684h177q153 0 229 100.5t76 276.5q0 323 -297 323h-185v-700z" />
<glyph unicode="S" horiz-adv-x="784" d="M86 74q0 23 25 32q81 -77 249 -77q151 0 224 81t73 220q0 105 -37.5 185t-132.5 175l-239 221q-77 77 -115.5 143t-38.5 142q0 114 89.5 186t242.5 72q60 0 109.5 -7.5t78.5 -19.5t44.5 -25.5t15.5 -25.5q0 -20 -19 -35q-79 66 -241 66q-121 0 -196 -58t-75 -151 q0 -66 34 -121.5t99 -120.5l269 -251q91 -91 126.5 -172.5t35.5 -192.5q0 -167 -88 -263.5t-263 -96.5q-54 0 -100.5 7t-77 17.5t-52 23.5t-31 25t-9.5 21z" />
<glyph unicode="T" horiz-adv-x="737" d="M10 1384v29q0 21 21 21h696v-29q0 -21 -20 -21h-318v-1366q0 -14 -6 -16t-43 -2v1384h-330z" />
<glyph unicode="U" horiz-adv-x="991" d="M139 465v948q0 15 6.5 18t42.5 3v-969q0 -54 2.5 -95.5t10.5 -89t21.5 -82t38 -68t58 -54.5t82.5 -34t111 -13q82 0 166.5 17t124.5 38v1331q0 13 8 16t41 3v-1387q-42 -27 -141 -47t-199 -20q-72 0 -128.5 14t-95 37t-66.5 60t-44 75t-25 91.5t-11.5 99.5t-2.5 108z" />
<glyph unicode="V" horiz-adv-x="862" d="M10 1423q0 11 13 11h32l295 -1022q50 -168 92 -357q36 172 86 357l271 993q0 1 1 4q9 23 19 25h35l-395 -1452q-11 -2 -27 -2q-11 0 -43 118l-375 1307q-4 12 -4 18z" />
<glyph unicode="W" horiz-adv-x="1288" d="M10 1421q0 13 10 13h35l236 -1024q20 -88 65 -326h4q14 121 58 326l194 913q7 29 21 29h37l219 -942q14 -56 49 -238q9 -58 14 -84h4q15 78 19 102q16 103 39 220l213 995q0 1 1 4q9 23 19 25h35l-313 -1452q-9 -5 -27 -5q-8 0 -29 93l-213 901l-57 289l-53 -285 l-215 -993q-13 -2 -29 -2q-10 0 -35 122q-35 158 -109.5 484t-131.5 572l-58 247q0 2 -1 7.5t-1 8.5z" />
<glyph unicode="X" horiz-adv-x="878" d="M25 0l385 750l-330 673l-4 7q0 4 55 4l129 -265q149 -305 182 -383q11 21 39.5 80.5t71 148t74.5 154.5l123 254q0 1 1.5 3.5t2 2.5t2.5 1.5t4.5 1.5t6.5 1t10.5 1h14.5h21l-338 -695l377 -721q2 -5 2 -8q0 -4 -2 -6q-4 -4 -10 -4h-45l-172 346q-102 206 -183 365 q-3 -6 -68 -137t-114 -226l-172 -340q-5 -8 -18 -8h-45z" />
<glyph unicode="Y" horiz-adv-x="731" d="M10 1427q0 7 56 7l120 -306q34 -84 79.5 -207t74.5 -203l29 -81q108 298 182 491l113 295q3 8 11 9.5t46 1.5l-328 -846v-568q0 -15 -6 -17.5t-43 -2.5v588l-332 835z" />
<glyph unicode="Z" horiz-adv-x="823" d="M63 23q0 9 9 32l618 1329h-495h-78v29q0 21 20 21h608q9 -9 9 -23q0 -12 -9 -33l-622 -1329h539q72 0 92 6v-35q0 -20 -21 -20h-655q-15 4 -15 23z" />
<glyph unicode="[" d="M375 -403v2058q0 17 8.5 21.5t32.5 4.5h483q0 -28 -5.5 -34.5t-31.5 -6.5h-440v-1996h473q0 -22 -5.5 -33t-12 -12.5t-21.5 -1.5h-481z" />
<glyph unicode="\" horiz-adv-x="559" d="M20 1554q0 8 10.5 10.5t37.5 2.5l469 -1610q0 -1 1 -3t1 -3q0 -8 -10.5 -10t-36.5 -2l-469 1607q0 2 -1.5 4.5t-1.5 3.5z" />
<glyph unicode="]" d="M23 -410q0 28 5 34.5t31 6.5h441v2005h-473q0 22 5.5 33t12 12.5t21.5 1.5h481v-2066q0 -17 -8.5 -22t-32.5 -5h-483z" />
<glyph unicode="^" horiz-adv-x="880" d="M139 475l303 289l281 -268q10 -10 10 -21t-8 -19.5t-20 -9.5l-265 254l-239 -231q-26 -23 -37 -23q-21 0 -25 29z" />
<glyph unicode="_" horiz-adv-x="798" d="M41 -156q0 20 0.5 27.5t2.5 14.5t5.5 8.5t11.5 1.5h697q0 -35 -3 -43.5t-18 -8.5h-696z" />
<glyph unicode="`" horiz-adv-x="512" d="M100 1411q11 47 27 47q150 -112 285 -239l-21 -33q-69 48 -142 104.5t-111 88.5z" />
<glyph unicode="a" horiz-adv-x="784" d="M90 969q0 21 10 26q37 20 131.5 34.5t196.5 14.5q120 0 181 -57t61 -190v-135q0 -250 -13 -605l-11 -7q-11 -7 -15 -9t-17 -9t-21.5 -10.5t-24 -10t-28.5 -10t-31.5 -8.5t-36 -7t-39.5 -4t-44 -2h-22q-37 0 -65 2q-37 4 -79 21t-69 48t-44.5 88t-17.5 137 q0 61 10.5 110.5t27.5 83.5t43.5 59.5t54.5 40t64.5 23.5t69 12t72.5 3q117 0 187 -20v200q0 64 -15 106.5t-44.5 63.5t-63 29t-80.5 8q-108 0 -194 -16t-126 -37q-8 13 -8 27zM141 279q0 -51 8 -91t20 -66t34 -44.5t40.5 -27.5t50 -14t52.5 -6t57 -1q64 0 122 18.5t83 40.5 q13 177 13 453q-80 22 -177 22q-38 0 -65.5 -2t-61.5 -8.5t-57.5 -18t-47.5 -33t-38.5 -51t-23.5 -73t-9 -98.5z" />
<glyph unicode="b" horiz-adv-x="864" d="M143 41v1434q0 9 2.5 15t4.5 9t10.5 4.5t13.5 1.5h19v-557q61 48 131.5 72t167.5 24q66 -1 116 -20.5t89.5 -62t60 -117.5t20.5 -180q0 -127 -14 -230t-36.5 -173t-56 -122t-67.5 -82t-75.5 -48t-76 -23.5t-73.5 -5.5q-157 0 -236 61zM193 76q59 -47 188 -47 q348 0 348 608q0 136 -28.5 215.5t-83 111t-144.5 31.5q-166 0 -280 -108v-811z" />
<glyph unicode="c" horiz-adv-x="720" d="M102 489q0 102 12.5 185.5t32.5 140t50 99t61 67t70.5 39.5t73 19.5t73.5 4.5q65 0 118.5 -22t53.5 -47q0 -22 -12 -37q-70 57 -174 57q-32 0 -59 -4t-60 -17t-59 -35.5t-51 -61.5t-42 -92t-27.5 -131t-10.5 -175q0 -113 13.5 -195.5t36 -131t58 -77.5t73 -38.5 t87.5 -9.5q73 0 130 24t89 58q12 -15 12 -37q0 -29 -71 -60.5t-168 -31.5q-56 0 -97.5 9.5t-83.5 40.5t-68.5 85.5t-43.5 148.5t-17 225z" />
<glyph unicode="d" horiz-adv-x="864" d="M102 494q0 138 30 245t82 172.5t118.5 99t144.5 33.5q123 0 193 -49v480q0 15 6.5 21.5t14.5 7.5t30 1v-1464q-109 -61 -285 -61q-63 0 -106.5 8.5t-89.5 39t-74 85t-46 150.5t-18 231zM152 494q0 -125 15.5 -212t39 -135.5t65 -75.5t80.5 -34t99 -8q140 0 219 51v858 q-40 33 -79.5 45t-107.5 12q-145 0 -238 -130.5t-93 -370.5z" />
<glyph unicode="e" horiz-adv-x="798" d="M96 453q0 113 12.5 203.5t32.5 151.5t51 105.5t61 69t70 39t71.5 18.5t70.5 4q133 0 194.5 -85.5t61.5 -233.5q0 -136 -14 -221q-193 -37 -494 -37h-68v-23q0 -80 8 -143t21.5 -106t35.5 -74t44.5 -48.5t55.5 -27.5t61.5 -13t68.5 -3q77 0 147 19.5t115 55.5 q11 -22 11 -38q0 -26 -85.5 -56t-185.5 -30q-47 0 -82.5 4t-73 16t-64.5 33t-52 56.5t-40.5 85t-24.5 119.5t-9 159zM147 516q4 0 31.5 -1t50.5 -1q277 0 435 33q8 81 8 153q-3 147 -47.5 221t-157.5 74q-29 0 -49.5 -2t-50.5 -8t-52.5 -20t-48 -36.5t-44.5 -58.5 t-35.5 -84.5t-26.5 -117t-13 -152.5z" />
<glyph unicode="f" horiz-adv-x="493" d="M35 975q0 35 2.5 42t17.5 7h154v137q0 90 21 157.5t52 104t76.5 58.5t85 28.5t86.5 6.5q56 0 95 -7.5t53 -16.5t14 -17q0 -11 -8 -31q-77 22 -158 22q-43 0 -74 -4t-70 -22t-64 -50t-42.5 -92.5t-17.5 -144.5v-129h250q0 -34 -3 -41.5t-18 -7.5h-229v-955q0 -20 -20 -20 h-29v975h-174z" />
<glyph unicode="g" horiz-adv-x="847" d="M92 -193q0 70 55.5 146.5t126.5 126.5q-147 41 -147 102q0 37 40 86t93 90q-40 23 -67.5 57.5t-42 78.5t-20 88.5t-5.5 97.5q0 171 96 267.5t236 96.5q32 0 90 -10h258q4 -6 4 -18q0 -27 -33 -27q-69 0 -155 4q73 -27 114 -98t41 -178q0 -81 -19 -151t-57.5 -127.5 t-104 -90.5t-151.5 -33q-77 0 -141 23q-50 -35 -88.5 -79t-38.5 -73q0 -32 99 -59t264 -45q48 -6 82.5 -12.5t73 -22t62.5 -37t40 -57t16 -82.5q0 -110 -105.5 -193.5t-293.5 -83.5q-97 0 -163 17t-99 48.5t-46.5 66.5t-13.5 81zM141 -193q0 -37 10.5 -64t38.5 -51t84 -36 t140 -12q163 0 256.5 66.5t93.5 158.5q0 38 -14 67t-34 46t-53 29t-61 17t-67 9q-108 12 -203 31q-72 -44 -131.5 -121t-59.5 -140zM174 676q0 -51 5 -90.5t22.5 -83t46.5 -72t81 -47t122 -18.5q69 0 124 31.5t87 83t48.5 112t16.5 125.5q0 138 -71 208t-199 70 q-121 0 -202 -82.5t-81 -236.5z" />
<glyph unicode="h" horiz-adv-x="849" d="M135 0v1475q0 22 8.5 26t40.5 4v-557q129 96 295 96q78 0 130 -19t80 -58t39 -87t11 -116v-744q0 -15 -6 -17.5t-43 -2.5v764q0 115 -46 173t-169 58q-73 0 -152.5 -27.5t-138.5 -86.5v-861q0 -15 -6.5 -17.5t-42.5 -2.5z" />
<glyph unicode="i" horiz-adv-x="339" d="M131 1307q0 65 41 65q37 0 37 -53q0 -32 -9 -47t-32 -15q-37 3 -37 50zM145 0v993q0 22 9 26.5t41 4.5v-1004q0 -15 -6.5 -17.5t-43.5 -2.5z" />
<glyph unicode="j" horiz-adv-x="366" d="M-256 -317q0 19 12 36q86 -67 221 -67q48 0 81 13.5t52.5 35.5t30.5 61t14 79.5t3 101.5v1050q0 22 8.5 26.5t40.5 4.5v-1100q0 -79 -9 -133t-34 -99t-72.5 -67t-120.5 -22q-66 0 -120 14t-80.5 32t-26.5 34zM147 1307q0 65 39 65q37 0 37 -53q0 -32 -9 -47t-32 -15 q-35 3 -35 50z" />
<glyph unicode="k" horiz-adv-x="827" d="M143 0v1475q0 22 8.5 26t41.5 4v-622q66 76 160 118.5t167 42.5q96 0 140.5 -44.5t44.5 -137.5q0 -57 -23 -109t-54 -87.5t-72 -65.5t-68 -44.5t-50 -23.5q25 5 31 5q36 0 75.5 -15t79.5 -45t72 -86t47 -129q11 -64 11 -117t-9 -118q-3 -21 -9 -24t-44 -3q10 85 10 139 q0 117 -32 195q-25 60 -68.5 97t-85.5 49t-88 12q-43 0 -80 -11l-155 -55v-406v-6q0 -10 -7 -12t-43 -2zM193 479q78 24 144.5 51.5t126 63.5t101 75.5t66 89t24.5 103.5q0 133 -139 133q-78 0 -162 -41.5t-161 -130.5v-344z" />
<glyph unicode="l" horiz-adv-x="337" d="M143 0v1475q0 22 9 26t41 4v-1485q0 -15 -7 -17.5t-43 -2.5z" />
<glyph unicode="m" horiz-adv-x="1280" d="M143 0v977q158 67 297 67q160 0 205 -79q135 79 277 79q73 0 119 -18.5t69.5 -61t31 -93.5t7.5 -134v-717q0 -15 -6 -17.5t-43 -2.5v752q0 135 -34.5 189t-141.5 54q-138 0 -250 -75v-164v-2v-734q0 -15 -6 -17.5t-43 -2.5v754q0 38 -0.5 56.5t-2.5 47.5t-7 42.5 t-13.5 32.5t-22 28t-32.5 18t-45 12.5t-60 3.5q-129 0 -249 -55v-920q0 -15 -7.5 -17.5t-42.5 -2.5z" />
<glyph unicode="n" horiz-adv-x="864" d="M137 0v971q180 73 338 73q84 0 139 -18.5t84.5 -58t40.5 -89t11 -124.5v-734q0 -15 -6.5 -17.5t-43.5 -2.5v745q0 135 -45.5 192.5t-177.5 57.5q-66 0 -149.5 -15.5t-141.5 -43.5v-916q0 -15 -6.5 -17.5t-42.5 -2.5z" />
<glyph unicode="o" horiz-adv-x="821" d="M82 508q0 536 342 536q81 0 137 -24.5t97.5 -84.5t61 -165.5t19.5 -261.5q0 -262 -87.5 -395t-252.5 -133q-62 0 -105.5 10t-86.5 42t-68.5 89t-41 154t-15.5 233zM131 494q0 -137 17.5 -229.5t53.5 -143.5t83.5 -71.5t115.5 -20.5q136 0 212.5 123.5t76.5 363.5 q0 141 -18 236.5t-54.5 148t-83 73.5t-112.5 21q-68 0 -120 -26.5t-91 -84t-59.5 -155.5t-20.5 -235z" />
<glyph unicode="p" horiz-adv-x="858" d="M143 -385v1346q131 83 291 83q84 0 145.5 -22t106.5 -72.5t67.5 -137t22.5 -210.5q0 -115 -14.5 -209.5t-37.5 -157.5t-56 -111t-66 -74.5t-71.5 -43t-68 -21.5t-59.5 -5q-71 0 -129 28.5t-81 63.5v-471q-20 -4 -27 -4q-23 0 -23 18zM193 154q34 -61 90 -93t116 -32 q27 1 51.5 5t58.5 18t63 36.5t58.5 64.5t50 97t33.5 139t13 186q0 123 -19 205.5t-58 129t-91 66t-127 19.5q-136 0 -239 -65v-776z" />
<glyph unicode="q" horiz-adv-x="880" d="M100 459q0 287 107.5 436t300.5 149q139 0 227 -65v-1364q0 -14 -4.5 -17.5t-28.5 -3.5h-16v515q-92 -129 -270 -129q-316 0 -316 479zM150 451q0 -81 10.5 -146.5t27 -108.5t41 -75t48.5 -49t55 -27.5t53.5 -13t50.5 -2.5q74 0 143.5 39.5t106.5 121.5v760 q-26 19 -75.5 32t-106.5 13q-172 0 -263 -136t-91 -408z" />
<glyph unicode="r" horiz-adv-x="591" d="M137 0v954q127 90 269 90q68 0 110.5 -16t42.5 -39q0 -25 -12 -33q-67 39 -137 39q-133 0 -224 -71v-904q0 -14 -7.5 -17t-41.5 -3z" />
<glyph unicode="s" horiz-adv-x="808" d="M102 51q0 25 17 37q48 -31 105 -45t145 -14q132 0 207 48.5t75 149.5q0 76 -36.5 133t-114.5 111l-236 137q-94 55 -123.5 101.5t-29.5 113.5q0 104 93.5 162.5t235.5 58.5q49 0 94 -7t75.5 -17.5t53.5 -22.5t33.5 -23t10.5 -18q0 -14 -19 -36q-59 39 -116 57t-132 18 q-122 0 -201 -45t-79 -125q0 -49 26 -86.5t97 -81.5l260 -157q79 -56 118 -117t39 -137q0 -132 -85 -199t-244 -67q-81 0 -145 12t-94 28t-30 31z" />
<glyph unicode="t" horiz-adv-x="624" d="M74 975q0 32 2.5 40.5t13.5 8.5h154v338q0 23 7 27t42 4v-369h289q0 -33 -2 -41t-11 -8h-276v-668q0 -49 1 -77.5t4.5 -65.5t11 -57.5t20.5 -40.5t33.5 -28.5t48.5 -8.5q32 0 58.5 5t42 11.5t44.5 20.5q6 -15 6 -31q0 -23 -45.5 -39t-109.5 -16q-27 0 -49 6t-38 14 t-28.5 25.5t-20.5 31t-13.5 41t-8.5 45t-4.5 53t-1.5 56v61.5v662h-170z" />
<glyph unicode="u" horiz-adv-x="911" d="M150 379v625q0 15 6 17.5t43 2.5v-659q0 -197 54 -266.5t212 -69.5q53 0 123 13.5t125 43.5v918q0 14 8.5 17t40.5 3v-977q-134 -67 -313 -67q-90 0 -147 20t-91.5 69t-47.5 121.5t-13 188.5z" />
<glyph unicode="v" horiz-adv-x="757" d="M68 1012q0 8 9 10t36 2l116 -389q37 -125 76 -267t59 -222l21 -80h2q66 289 148 573l104 365q4 15 11 17.5t40 2.5l-293 -1042h-26q-11 39 -29 100l-272 922q0 2 -1 4.5t-1 3.5z" />
<glyph unicode="w" horiz-adv-x="1161" d="M66 1014q0 7 8.5 8.5t40.5 1.5l104 -420l125 -520h2q15 70 53 229q34 135 70 295l80 355q3 20 20 20h31l98 -383l131 -516h2q17 99 113 520l92 400q3 15 10.5 17.5t47.5 2.5l-250 -1042h-27q-15 46 -33 116l-39 144q-83 304 -167 628q-111 -462 -154 -630l-66 -258h-28 q-13 39 -27 100q-28 118 -86.5 348.5t-103.5 401.5l-45 172q0 2 -1 5.5t-1 4.5z" />
<glyph unicode="x" horiz-adv-x="958" d="M61 0l388 545l-330 469l-2 4q0 6 53 6l135 -190q31 -42 69 -96.5t69.5 -99.5t39.5 -56l181 256l124 176q6 8 13.5 9t52.5 1l-340 -477l377 -529q6 -9 6 -12q0 -6 -57 -6l-142 201q-48 67 -126.5 179t-90.5 128l-221 -311l-129 -185q-6 -9 -17 -10.5t-53 -1.5z" />
<glyph unicode="y" horiz-adv-x="790" d="M16 -356q0 21 17 34q53 -24 114 -24q155 0 234 313l-289 1037q-2 4 -2 12q0 6 8.5 7t38.5 1l205 -735q16 -60 32 -127.5t24 -105.5l8 -38q24 134 61 275l188 711q5 15 12 17.5t46 2.5l-293 -1096q-48 -174 -115.5 -248.5t-159.5 -74.5q-129 0 -129 39z" />
<glyph unicode="z" horiz-adv-x="815" d="M82 27q0 17 6 26l580 922h-291q-207 0 -283 -8q-2 14 -2 28q0 12 5.5 20.5t13.5 8.5h614q8 -6 8 -20q0 -20 -8 -33l-584 -922h305q198 0 283 10v-28q0 -17 -4 -24t-14 -7h-621q-8 11 -8 27z" />
<glyph unicode="{" horiz-adv-x="606" d="M133 612q0 26 25 39q27 15 38 22t29 24t25.5 35t13.5 49t6 73q0 61 -14 229q-14 119 -14 205q0 67 23 114t67 73t99 37.5t128 11.5q8 -11 8 -29q0 -22 -22 -22q-61 -2 -102.5 -9.5t-78.5 -27.5t-55 -58.5t-18 -97.5q0 -42 12 -156q16 -156 16 -268q0 -104 -35.5 -158 t-99.5 -80q67 -20 101 -63t34 -127q0 -114 -16 -274q-12 -132 -12 -185q0 -40 4 -71t13.5 -54t19.5 -39.5t29.5 -27.5t35 -18t43.5 -11.5t49 -6t57 -4.5q10 -1 15 -1q4 -16 4 -21q0 -24 -22 -24q-158 0 -227.5 58.5t-69.5 213.5q0 84 14 207q14 173 14 246q0 81 -35 118.5 t-98 49.5q-4 10 -4 28z" />
<glyph unicode="|" horiz-adv-x="796" d="M375 -410v2059q0 14 8 17t39 3v-2060q0 -13 -10 -16t-37 -3z" />
<glyph unicode="}" horiz-adv-x="606" d="M39 -281q0 10 6.5 16.5t15.5 6.5q62 2 103 9.5t78 27t55 58t18 97.5q0 42 -12 156q-16 156 -16 268q0 104 35.5 158t99.5 80q-67 20 -101 63t-34 127q0 115 16 275q12 132 12 184q0 78 -14.5 125t-55 69t-73.5 28t-110 11q-9 1 -13 1q-4 16 -4 20q0 25 23 25 q158 0 227.5 -58.5t69.5 -214.5q0 -76 -15 -207q-14 -173 -14 -245q0 -81 35 -118.5t98 -49.5q4 -10 4 -29q0 -27 -24 -39q-33 -19 -47 -28.5t-33 -32t-26 -56.5t-7 -86q0 -61 14 -229q15 -127 15 -205q0 -67 -23 -114t-67.5 -73t-99.5 -37t-128 -11q-8 11 -8 28z" />
<glyph unicode="~" horiz-adv-x="819" d="M29 520q28 47 85.5 87t141.5 40q32 0 61.5 -9.5t45.5 -19t45 -28.5q28 -19 45.5 -29t48 -19.5t63.5 -9.5q57 0 103 26.5t75 70.5q9 12 21 12q18 0 29 -25q-18 -26 -34 -44.5t-44 -41.5t-67 -35t-87 -12q-39 0 -75 11t-54.5 21.5t-50.5 31.5q-74 51 -131 51 q-61 0 -106.5 -29t-69.5 -63q-10 -10 -19 -10q-16 0 -26 24z" />
<glyph unicode="&#xa1;" horiz-adv-x="372" d="M129 979q0 28 16.5 45.5t42.5 17.5t41 -17.5t15 -45.5q0 -26 -15.5 -43.5t-40.5 -17.5q-26 0 -42.5 18t-16.5 43zM160 -406v1090q0 23 49 23v-1098q0 -15 -49 -15z" />
<glyph unicode="&#xa2;" d="M207 453q0 136 18.5 239.5t48 165.5t73 103t85 57.5t92.5 21.5v265q0 19 9 24.5t36 5.5v-293h11q61 0 116.5 -22t55.5 -39q0 -27 -13 -43q-27 20 -41 29t-44 17.5t-70 8.5q-52 0 -93 -10t-86 -43.5t-75 -91t-50 -161t-20 -243.5q0 -114 14 -192.5t35.5 -122.5t61 -67 t77 -29t97.5 -6q100 0 198 82q13 -16 13 -37q0 -13 -28.5 -34.5t-80.5 -39.5t-106 -18h-9v-252q0 -19 -7.5 -25t-35.5 -6v283q-56 3 -94 12.5t-76.5 39t-61 79.5t-36.5 135.5t-14 206.5z" />
<glyph unicode="&#xa3;" horiz-adv-x="825" d="M31 573q0 20 0.5 27.5t2.5 14.5t5.5 8.5t11.5 1.5h154v51q0 133 17 231.5t44.5 157.5t70.5 94t86.5 47.5t100.5 12.5q83 0 143 -26.5t60 -53.5q0 -22 -14 -39q-45 37 -87.5 53t-107.5 16q-49 0 -85.5 -10.5t-72 -41.5t-57.5 -84.5t-35.5 -142.5t-13.5 -212v-53h342 q0 -35 -3 -43.5t-18 -8.5h-321q4 -310 16 -520l439 -6q6 -12 6 -24q0 -25 -60 -25q-11 0 -32 1t-29 1h-373q-16 315 -16 573h-174z" />
<glyph unicode="&#xa4;" horiz-adv-x="1064" d="M41 1051q25 25 32.5 28.5t18.5 -6.5l152 -149q108 120 305 120q178 0 278 -118l162 161q24 -24 27.5 -32t-6.5 -19l-152 -151q68 -117 68 -283q0 -170 -74 -287l172 -172q-25 -25 -32.5 -28.5t-18.5 6.5l-154 153q-105 -114 -291 -114q-182 0 -282 112l-168 -168 q-29 29 -29 39q0 7 8 15l156 155q-74 117 -74 289q0 168 72 281zM184 584q0 -177 90 -276t250 -99q168 0 262.5 105.5t94.5 295.5q0 183 -87 284t-243 101q-172 0 -269.5 -108.5t-97.5 -302.5z" />
<glyph unicode="&#xa5;" d="M94 1427q0 7 56 7l120 -306q34 -84 79.5 -207t74.5 -203l29 -81q108 298 182 491l113 295q3 8 11 9.5t46 1.5l-268 -693h225q0 -27 -5.5 -36t-23.5 -9h-213l-43 -108v-166h287q0 -27 -5.5 -36t-23.5 -9h-258v-357q0 -15 -6 -17.5t-43 -2.5v377h-293q0 27 5.5 36t23.5 9 h264v166l-43 108h-250q0 27 5.5 36t23.5 9h203l-271 682z" />
<glyph unicode="&#xa6;" horiz-adv-x="458" d="M205 -399v831q0 21 24 21q15 0 25 -4v-836q0 -16 -25 -16q-14 0 -24 4zM205 688v811q0 21 24 21q15 0 25 -4v-816q0 -16 -25 -16q-14 0 -24 4z" />
<glyph unicode="&#xa7;" horiz-adv-x="798" d="M123 819q0 64 36 120t109 91l-24 23q-58 56 -79.5 93t-21.5 95q0 89 77 145t212 56q89 0 156.5 -28.5t77.5 -57.5q2 -4 2 -10q0 -18 -19 -31q-91 78 -229 78q-104 0 -165.5 -42.5t-61.5 -109.5q0 -44 18.5 -75.5t62.5 -75.5q27 -27 134 -113q122 -98 165 -141 q57 -59 82 -107.5t25 -114.5q0 -61 -37 -118.5t-108 -92.5l24 -22q57 -55 78.5 -92.5t21.5 -95.5q0 -89 -76.5 -145t-211.5 -56q-89 0 -156.5 28.5t-77.5 57.5q-2 4 -2 10q0 18 19 31q91 -78 229 -78q104 0 165.5 42.5t61.5 109.5q0 44 -18.5 75t-63.5 76q-31 31 -133 113 q-127 102 -166 141q-57 59 -81.5 107t-24.5 114zM172 821q0 -55 20 -93.5t64 -86.5q34 -38 170 -147q55 -47 76 -62q55 24 92 78.5t37 101.5q0 55 -20 94.5t-64 86.5q-34 38 -170 147q-26 19 -74 61q-58 -22 -94.5 -76t-36.5 -104z" />
<glyph unicode="&#xa8;" horiz-adv-x="512" d="M117 1307q0 65 39 65q37 0 37 -53q0 -32 -9 -47t-32 -15q-35 3 -35 50zM322 1307q0 65 38 65q37 0 37 -53q0 -32 -9 -47t-32 -15q-34 3 -34 50z" />
<glyph unicode="&#xa9;" horiz-adv-x="933" d="M86 1104q0 232 102.5 343.5t290.5 111.5q93 0 159.5 -22t115.5 -74t72.5 -140.5t23.5 -218.5q0 -217 -100 -332t-279 -115q-76 0 -130 9.5t-105 37.5t-82 76.5t-49.5 129.5t-18.5 194zM133 1092q0 -111 21 -187t64.5 -119t100 -61t136.5 -18q164 0 256 104t92 299 q0 114 -22 193t-65.5 123.5t-99.5 63.5t-133 19q-350 0 -350 -417zM299 1075q0 83 12.5 143.5t31 93.5t46.5 52t51.5 24t53.5 5q31 0 63.5 -12.5t32.5 -20.5q0 -5 -7 -22.5t-10 -18.5q-3 2 -8.5 5.5t-8 5t-8 4t-9.5 4t-9.5 3t-12 2t-13.5 0.5q-32 0 -55.5 -9t-48 -35 t-37.5 -82.5t-13 -141.5q0 -67 8.5 -109.5t27.5 -62.5t39.5 -26.5t53.5 -6.5q44 0 96 33q17 -25 17 -35q0 -6 -16.5 -17t-45.5 -20.5t-57 -9.5q-35 0 -57.5 3.5t-47 18t-38 41t-22.5 74.5t-9 117z" />
<glyph unicode="&#xaa;" horiz-adv-x="714" d="M123 834q0 62 14.5 107t37 70.5t58.5 40.5t70 19t80 4q82 0 160 -24v209q0 47 -15 78t-43.5 44.5t-54.5 18t-61 4.5q-129 0 -222 -57q-14 10 -14 30q0 14 6 17q90 59 246 59q207 0 207 -184v-621q-31 -18 -97.5 -37.5t-140.5 -19.5q-51 0 -87.5 8t-71.5 31.5t-53.5 74.5 t-18.5 128zM170 825q0 -58 15 -96.5t44.5 -57t62 -25.5t77.5 -7q48 0 98.5 12t75.5 27v323q-85 25 -148 25q-38 0 -61.5 -1.5t-53 -7.5t-46.5 -19t-33.5 -35t-23.5 -56.5t-7 -81.5z" />
<glyph unicode="&#xab;" horiz-adv-x="858" d="M82 526q0 15 77.5 139.5t155.5 241.5l78 117q9 0 17 -6t12 -12l4 -7q0 -13 -73 -131t-147 -230l-73 -112q303 -473 303 -489q-12 -37 -26 -37q-328 489 -328 526zM391 512q0 15 77.5 132.5t155.5 227.5l78 111q9 0 17 -6.5t12 -12.5l4 -6q0 -13 -73 -124.5t-146 -216.5 l-74 -105q303 -418 303 -434q-12 -37 -26 -37q-328 434 -328 471z" />
<glyph unicode="&#xac;" horiz-adv-x="819" d="M68 555q0 10 7.5 18.5t16.5 8.5h635v-355q-16 -4 -27 -4q-10 0 -17 8t-7 17v282h-604q-4 12 -4 25z" />
<glyph unicode="&#xad;" horiz-adv-x="622" d="M102 551q0 35 3 43t18 8h397v-27.5t-2.5 -14.5t-6 -8t-11.5 -1h-398z" />
<glyph unicode="&#xae;" horiz-adv-x="933" d="M86 1104q0 232 102.5 343.5t290.5 111.5q93 0 159.5 -22t115.5 -74t72.5 -140.5t23.5 -218.5q0 -217 -100 -332t-279 -115q-76 0 -130 9.5t-105 37.5t-82 76.5t-49.5 129.5t-18.5 194zM133 1092q0 -111 21 -187t64.5 -119t100 -61t136.5 -18q164 0 256 104t92 299 q0 114 -22 193t-65.5 123.5t-99.5 63.5t-133 19q-350 0 -350 -417zM340 831v560q0 8 10 8h115q92 0 133 -41.5t41 -106.5q0 -124 -102 -155q92 -106 114 -248q0 -15 -12 -17h-37q-15 75 -44.5 137.5t-47.5 84t-29 30.5h-24h-68v-235q0 -6 -3.5 -10t-12.5 -5.5t-14 -1.5h-19z M389 1126h64q70 0 104.5 32.5t34.5 88.5q0 107 -137 107h-66v-228z" />
<glyph unicode="&#xaf;" horiz-adv-x="512" d="M8 1303q3 24 23 24h471q2 -10 2 -27q-3 -24 -23 -24h-471q-2 10 -2 27z" />
<glyph unicode="&#xb0;" horiz-adv-x="790" d="M231 1343q0 85 47.5 129t129.5 44t120.5 -40t38.5 -133q0 -82 -45.5 -125.5t-128.5 -43.5q-81 0 -121.5 34.5t-40.5 134.5zM281 1337q0 -61 27.5 -87.5t84.5 -26.5q125 0 125 123q0 66 -26.5 93t-81.5 27q-65 0 -97 -29t-32 -100z" />
<glyph unicode="&#xb1;" d="M104 20q0 35 3 43.5t18 8.5h696q0 -20 -0.5 -27.5t-2.5 -14.5t-5.5 -8.5t-11.5 -1.5h-697zM104 551q0 35 3 43t18 8h313v313q0 15 8 18t43 3v-334h332v-27.5t-2.5 -14.5t-6 -8t-11.5 -1h-312v-311q0 -15 -8 -18t-43 -3v332h-334z" />
<glyph unicode="&#xb2;" horiz-adv-x="864" d="M133 618q0 27 14 41q63 63 195 177q58 48 92 77.5t78.5 74.5t68 80t41 78.5t17.5 86.5q0 79 -41 125.5t-152 46.5q-63 0 -118.5 -19t-84 -39t-61.5 -51q-18 11 -18 35q0 11 23.5 31.5t60.5 41t92 35.5t109 15q72 0 121 -18t73.5 -51.5t34.5 -70.5t10 -85q0 -46 -18.5 -93 t-42.5 -83.5t-71 -85t-80 -77.5t-93 -81q-127 -107 -184 -168h526q6 -12 6 -25q0 -24 -20 -24h-574q-4 10 -4 26z" />
<glyph unicode="&#xb3;" horiz-adv-x="919" d="M164 655q0 18 20 31q43 -35 95 -50t141 -15q130 0 208.5 59t78.5 158q0 70 -46.5 117.5t-119.5 58.5q-69 10 -195 10q-4 6 -4 23q0 9 6 17.5t17 8.5q83 0 165 -8q74 46 106 94t32 107q0 53 -46 96t-153 43q-166 0 -274 -94q-13 10 -13 26q0 18 11 25q38 36 108.5 64 t165.5 28q70 0 121 -16.5t78 -44.5t39 -59t12 -66q0 -134 -127 -215q78 -24 122 -78t44 -129q0 -131 -92.5 -203t-257.5 -72q-84 0 -148 20t-88 46q-6 9 -6 18z" />
<glyph unicode="&#xb4;" horiz-adv-x="512" d="M100 1219q60 56 131 116t113 91l41 32q7 0 14 -12t10 -24l3 -11q-135 -116 -291 -225z" />
<glyph unicode="&#xb5;" horiz-adv-x="915" d="M150 -393v1405q0 20 24 20q15 0 25 -4v-766q0 -233 254 -233q144 0 260 51v930q0 22 24 22q15 0 25 -4v-981q-157 -67 -307 -67q-184 0 -256 100v-461q0 -16 -29 -16q-8 0 -20 4z" />
<glyph unicode="&#xb6;" horiz-adv-x="1132" d="M111 870q0 272 106.5 427t300.5 155q75 0 124 -12t103 -39v-1387q0 -13 -6.5 -16.5t-21.5 -3.5q-9 0 -21 4v432q-35 -20 -97 -31.5t-112 -11.5q-59 0 -110 13t-101.5 47t-85.5 87t-57 139t-22 197zM160 870q0 -102 20 -180t52.5 -125t78.5 -77t92 -41t99 -11 q44 0 101 12.5t93 34.5v885q-59 35 -182 35q-169 0 -261.5 -139.5t-92.5 -393.5zM930 2v1389q0 20 24 20q15 0 25 -4v-1393q0 -16 -25 -16q-14 0 -24 4z" />
<glyph unicode="&#xb7;" horiz-adv-x="397" d="M133 553q0 26 15 43.5t40 17.5q26 0 43 -18t17 -43q0 -28 -17 -46t-43 -18t-40.5 18t-14.5 46z" />
<glyph unicode="&#xb8;" horiz-adv-x="512" d="M164 -350q1 51 24 51q6 0 32.5 -8t43.5 -8q78 0 78 77q0 45 -20.5 59.5t-55.5 14.5q-15 0 -32.5 -2.5t-27.5 -5.5l-11 -2l38 180h52l-29 -131q14 4 39 4q39 0 67.5 -25.5t28.5 -78.5q0 -77 -38 -107t-89 -30q-24 0 -49 3t-38 6z" />
<glyph unicode="&#xb9;" horiz-adv-x="897" d="M164 612q0 29 20 29h279v758l-287 -64q-6 9 -6 25q0 20 23 26q267 68 294 68q17 0 25 -4v-809h219q2 -10 2 -25q0 -24 -18 -24h-547q-4 8 -4 20z" />
<glyph unicode="&#xba;" horiz-adv-x="737" d="M102 1020q0 221 75.5 327.5t203.5 106.5q88 0 141.5 -36.5t83 -133t29.5 -264.5q0 -212 -71 -319t-204 -107q-63 0 -106.5 17t-79.5 62t-54 131t-18 216zM152 1010q0 -108 13.5 -180.5t41 -113t64 -57t89.5 -16.5q108 0 168 98t60 287q0 110 -13.5 184.5t-41 116.5 t-63 59t-85.5 17q-113 0 -173 -92t-60 -303z" />
<glyph unicode="&#xbb;" horiz-adv-x="849" d="M113 76q0 7 75.5 116t151.5 214l76 106q-293 417 -293 446q0 8 8.5 14t16.5 8l8 3q311 -438 311 -471q0 -16 -81.5 -134t-163.5 -228l-81 -109l-7.5 2.5t-12.5 10.5t-8 22zM414 35q0 7 75.5 130t151.5 242l76 119q-293 444 -293 473q0 8 8 14.5t16 8.5l9 2 q311 -465 311 -498q0 -16 -81.5 -147.5t-162.5 -254.5l-82 -124l-7.5 2.5t-12.5 10.5t-8 22z" />
<glyph unicode="&#xbc;" horiz-adv-x="2088" d="M143 612q0 29 21 29h278v758l-286 -64q-6 9 -6 25q0 20 22 26q267 68 295 68q17 0 25 -4v-809h219q2 -10 2 -25q0 -24 -19 -24h-547q-4 8 -4 20zM592 10l967 1434q7 10 16 10q19 0 29 -27l-969 -1439q-3 -6 -14 -6t-20 8t-9 20zM1370 178q0 10 16 60q45 135 168.5 322 t239.5 292q10 10 29 10q12 0 20 -4v-647h170q4 -12 4 -27q0 -22 -12 -22h-162v-146q0 -24 -31 -24q-12 0 -18 2v168h-420q-4 12 -4 16zM1434 211h360v567q-97 -94 -207 -257.5t-153 -309.5z" />
<glyph unicode="&#xbd;" horiz-adv-x="2080" d="M143 612q0 29 21 29h278v758l-286 -64q-6 9 -6 25q0 20 22 26q267 68 295 68q17 0 25 -4v-809h219q2 -10 2 -25q0 -24 -19 -24h-547q-4 8 -4 20zM592 10l967 1434q7 10 16 10q19 0 29 -27l-969 -1439q-3 -6 -14 -6t-20 8t-9 20zM1370 27q0 27 14 41q56 56 195 176 q58 48 92 77.5t78.5 74.5t68 80t41 78.5t17.5 86.5q0 79 -41 125.5t-152 46.5q-64 0 -119 -19t-83.5 -39t-61.5 -50q-18 11 -18 34q0 11 23.5 31.5t60.5 41t92 35.5t109 15q72 0 121 -18t73.5 -51.5t34.5 -70.5t10 -85q0 -46 -18.5 -93t-42.5 -83.5t-71 -85t-80 -77.5 t-93 -81q-127 -107 -184 -168h526q6 -12 6 -24q0 -25 -20 -25h-574q-4 10 -4 27z" />
<glyph unicode="&#xbe;" horiz-adv-x="2111" d="M143 655q0 17 21 31q43 -35 94.5 -50t140.5 -15q130 0 208.5 59t78.5 158q0 70 -46.5 117.5t-119.5 58.5q-69 10 -194 10q-4 6 -4 23q0 9 5.5 17.5t16.5 8.5q84 0 166 -8q74 46 105.5 94t31.5 107q0 53 -45.5 96t-152.5 43q-167 0 -275 -94q-12 10 -12 26q0 18 10 25 q38 36 108.5 64t165.5 28q70 0 121 -16.5t78 -44.5t39 -59t12 -66q0 -134 -127 -215q78 -24 122 -78t44 -129q0 -131 -92.5 -203t-257.5 -72q-84 0 -147.5 20t-87.5 46q-7 11 -7 18zM614 10l967 1434q7 10 16 10q19 0 29 -27l-969 -1439q-3 -6 -14 -6t-20 8t-9 20zM1393 178 q0 10 16 60q45 135 168.5 322t239.5 292q10 10 28 10q13 0 21 -4v-647h170q4 -12 4 -27q0 -22 -12 -22h-162v-146q0 -24 -31 -24q-12 0 -18 2v168h-420q-4 12 -4 16zM1456 211h361v567q-97 -95 -207.5 -258.5t-153.5 -308.5z" />
<glyph unicode="&#xbf;" horiz-adv-x="606" d="M29 -102q0 48 12.5 97t27.5 84.5t44.5 80.5t47 68.5t50.5 64.5q49 60 72 96q55 90 55 191q0 25 -3.5 49t-6.5 35t-2 12q5 8 20 8q9 0 25 -4q16 -39 16 -102q0 -111 -61 -213q-21 -36 -80 -107q-40 -49 -61 -77.5t-50.5 -78t-43 -100.5t-13.5 -106q0 -66 18.5 -114 t43.5 -72t61.5 -38t60.5 -17t51 -3q135 0 228 69q2 -9 2 -36q0 -14 -30 -33t-85 -34t-113 -15q-41 0 -77.5 6t-76 25.5t-67.5 50.5t-46.5 86t-18.5 127zM285 975q0 28 16.5 45.5t42.5 17.5t40.5 -17.5t14.5 -45.5q0 -26 -15 -44t-40 -18q-26 0 -42.5 18.5t-16.5 43.5z" />
<glyph unicode="&#xc0;" horiz-adv-x="892" d="M20 0l410 1440q0 4 10 4q15 0 19 -4l411 -1420q6 -22 -16 -22q-23 0 -33 2l-123 434h-503l-117 -422q-4 -14 -29 -14q-15 0 -29 2zM207 483h477l-135 480q-102 371 -105 407q-7 -49 -104 -407zM291 1821q10 47 26 47q150 -113 285 -240l-20 -33q-69 48 -142 104.5 t-111 88.5z" />
<glyph unicode="&#xc1;" horiz-adv-x="892" d="M20 0l410 1440q0 4 10 4q15 0 19 -4l411 -1420q6 -22 -16 -22q-23 0 -33 2l-123 434h-503l-117 -422q-4 -14 -29 -14q-15 0 -29 2zM207 483h477l-135 480q-102 371 -105 407q-7 -49 -104 -407zM291 1628q60 56 131 116t112 92l41 32q7 0 14 -12t10 -24l3 -11 q-135 -117 -291 -226z" />
<glyph unicode="&#xc2;" horiz-adv-x="892" d="M20 0l410 1440q0 4 10 4q15 0 19 -4l411 -1420q6 -22 -16 -22q-23 0 -33 2l-123 434h-503l-117 -422q-4 -14 -29 -14q-15 0 -29 2zM207 483h477l-135 480q-102 371 -105 407q-7 -49 -104 -407zM213 1626l225 211q4 4 17 4q14 0 28 -14l197 -197q-20 -33 -45 -33l-182 195 q-189 -193 -201 -193q-13 0 -22.5 6.5t-13.5 13.5z" />
<glyph unicode="&#xc3;" horiz-adv-x="892" d="M20 0l410 1440q0 4 10 4q15 0 19 -4l411 -1420q6 -22 -16 -22q-23 0 -33 2l-123 434h-503l-117 -422q-4 -14 -29 -14q-15 0 -29 2zM164 1667q45 74 85.5 98.5t98.5 24.5q27 0 48.5 -11.5t36.5 -28t29.5 -33.5t35.5 -28.5t47 -11.5q32 0 58 11t41 26.5t25.5 31.5t17.5 27 t11 11q8 0 16 -8t12 -16l3 -7q-14 -28 -25.5 -45t-33 -38.5t-53 -32.5t-72.5 -11q-42 0 -75 19t-50 41.5t-39 41.5t-45 19q-38 0 -68.5 -27.5t-47.5 -54.5t-23 -27t-14.5 7t-13.5 15zM207 483h477l-135 480q-102 371 -105 407q-7 -49 -104 -407z" />
<glyph unicode="&#xc4;" horiz-adv-x="892" d="M20 0l410 1440q0 4 10 4q15 0 19 -4l411 -1420q6 -22 -16 -22q-23 0 -33 2l-123 434h-503l-117 -422q-4 -14 -29 -14q-15 0 -29 2zM207 483h477l-135 480q-102 371 -105 407q-7 -49 -104 -407zM307 1724q3 58 39 58q40 0 37 -62q-2 -27 -11 -40t-30 -13q-38 3 -35 57z M512 1724q3 58 39 58q40 0 37 -62q-2 -27 -11 -40t-30 -13q-38 3 -35 57z" />
<glyph unicode="&#xc5;" horiz-adv-x="892" d="M20 0l410 1440q0 4 10 4q15 0 19 -4l411 -1420q6 -22 -16 -22q-23 0 -33 2l-123 434h-503l-117 -422q-4 -14 -29 -14q-15 0 -29 2zM207 483h477l-135 480q-102 371 -105 407q-7 -49 -104 -407zM279 1741q0 85 47 128.5t129 43.5t120.5 -39.5t38.5 -132.5 q0 -82 -45.5 -126t-128.5 -44q-161 0 -161 170zM328 1735q0 -55 28.5 -85t83.5 -30q125 0 125 123q0 66 -26.5 93.5t-81.5 27.5q-65 0 -97 -29t-32 -100z" />
<glyph unicode="&#xc6;" horiz-adv-x="1382" d="M39 0l756 1421q7 13 16 13h496q0 -32 -2 -41t-11 -9h-448v-573h420q0 -32 -2.5 -40.5t-14.5 -8.5h-403v-713h465q0 -33 -2.5 -41t-14.5 -8h-497v434h-475l-226 -422q-7 -14 -28 -14q-15 0 -29 2zM348 483h449v863q-120 -245 -199 -392z" />
<glyph unicode="&#xc7;" horiz-adv-x="755" d="M98 637q0 156 12.5 281t33 209t52 145.5t63.5 95.5t74.5 53.5t77 25t78.5 5.5q78 0 133.5 -32.5t55.5 -61.5q0 -22 -14 -33q-10 11 -31 27.5t-64.5 34.5t-85.5 18q-38 0 -68 -5.5t-66 -24.5t-63 -52t-53.5 -91.5t-44 -139t-28 -199t-10.5 -266.5q0 -153 18 -265t45 -174 t67.5 -98t76.5 -46.5t81 -10.5q75 0 144 39.5t98 83.5q14 -23 14 -37q0 -36 -66.5 -80.5t-154.5 -54.5l-22 -109q13 4 38 4q39 0 68 -26t29 -78q0 -77 -38 -107t-89 -30q-24 0 -49 3t-38 6l-14 3q3 51 23 51q6 0 32.5 -8t45.5 -8q78 0 78 77q0 45 -20.5 59.5t-55.5 14.5 q-15 0 -33 -2.5t-28 -5.5l-11 -2l33 156q-34 1 -59 4.5t-61 18.5t-62 41t-54.5 75t-46.5 116t-29.5 169.5t-11.5 230.5z" />
<glyph unicode="&#xc8;" horiz-adv-x="731" d="M145 0v1413q1 21 21 21h489q0 -33 -1.5 -41.5t-10.5 -8.5h-448v-573h419q0 -49 -16 -49h-403v-713h464q0 -34 -2 -41.5t-14 -7.5h-498zM248 1821q10 47 26 47q150 -113 285 -240l-20 -33q-69 48 -142 104.5t-111 88.5z" />
<glyph unicode="&#xc9;" horiz-adv-x="731" d="M145 0v1413q1 21 21 21h489q0 -33 -1.5 -41.5t-10.5 -8.5h-448v-573h419q0 -49 -16 -49h-403v-713h464q0 -34 -2 -41.5t-14 -7.5h-498zM248 1628q60 56 131 116t112 92l41 32q7 0 14 -12t10 -24l3 -11q-135 -117 -291 -226z" />
<glyph unicode="&#xca;" horiz-adv-x="731" d="M145 0v1413q1 21 21 21h489q0 -33 -1.5 -41.5t-10.5 -8.5h-448v-573h419q0 -49 -16 -49h-403v-713h464q0 -34 -2 -41.5t-14 -7.5h-498zM170 1626l225 211q4 4 17 4q14 0 28 -14l197 -197q-20 -33 -45 -33l-182 195q-189 -193 -201 -193q-13 0 -22.5 6.5t-12.5 13.5z" />
<glyph unicode="&#xcb;" horiz-adv-x="731" d="M145 0v1413q1 21 21 21h489q0 -33 -1.5 -41.5t-10.5 -8.5h-448v-573h419q0 -49 -16 -49h-403v-713h464q0 -34 -2 -41.5t-14 -7.5h-498zM264 1724q3 58 39 58q40 0 37 -62q-2 -27 -11 -40t-30 -13q-38 3 -35 57zM469 1724q3 58 39 58q40 0 37 -62q-2 -27 -11 -40t-30 -13 q-38 3 -35 57z" />
<glyph unicode="&#xcc;" horiz-adv-x="329" d="M10 1821q11 47 27 47q150 -113 285 -240l-21 -33q-69 48 -142 104.5t-111 88.5zM139 0v1401q0 24 7 28.5t44 4.5v-1414q0 -15 -7.5 -17.5t-43.5 -2.5z" />
<glyph unicode="&#xcd;" horiz-adv-x="329" d="M10 1628q60 56 131 116t113 92l41 32q7 0 14 -12t10 -24l3 -11q-135 -117 -291 -226zM139 0v1401q0 24 7 28.5t44 4.5v-1414q0 -15 -7.5 -17.5t-43.5 -2.5z" />
<glyph unicode="&#xce;" horiz-adv-x="329" d="M-68 1626l226 211q4 4 16 4q15 0 29 -14l196 -197q-20 -33 -45 -33l-182 195q-189 -193 -201 -193q-13 0 -22.5 6.5t-12.5 13.5zM139 0v1401q0 24 7 28.5t44 4.5v-1414q0 -15 -7.5 -17.5t-43.5 -2.5z" />
<glyph unicode="&#xcf;" horiz-adv-x="329" d="M27 1724q3 58 39 58q39 0 36 -62q-2 -27 -11 -40t-30 -13q-37 3 -34 57zM139 0v1401q0 24 7 28.5t44 4.5v-1414q0 -15 -7.5 -17.5t-43.5 -2.5zM231 1724q3 58 39 58q40 0 37 -62q-2 -27 -11 -40t-30 -13q-38 3 -35 57z" />
<glyph unicode="&#xd0;" horiz-adv-x="894" d="M41 735v27.5t2.5 14.5t6 8t11.5 1h82v615q0 33 50 33h206q197 0 297.5 -155t100.5 -484q0 -146 -12.5 -263.5t-33 -199.5t-52.5 -142.5t-66 -96.5t-78 -57.5t-83.5 -28.5t-88.5 -7h-240v735h-102zM193 49h188q44 0 79.5 7t74.5 27t69 53.5t58 90.5t46 134t29 187t11 247 q0 304 -85.5 446.5t-273.5 142.5h-196v-598h272q0 -35 -3 -43t-18 -8h-251v-686z" />
<glyph unicode="&#xd1;" horiz-adv-x="962" d="M139 0v1413q0 21 21 21h24l262 -580l328 -725v793v491q0 15 6.5 18t42.5 3v-1414q0 -20 -20 -20h-25l-268 590l-322 715v-779v-506q0 -15 -6 -17.5t-43 -2.5zM199 1667q45 74 85.5 98.5t98.5 24.5q27 0 48.5 -11.5t36.5 -28t29.5 -33.5t35.5 -28.5t47 -11.5q32 0 58 11 t41 26.5t25.5 31.5t17.5 27t11 11q8 0 15.5 -8t11.5 -16l4 -7q-14 -28 -25.5 -45t-33 -38.5t-53 -32.5t-72.5 -11q-42 0 -75 19t-50 41.5t-39 41.5t-45 19q-38 0 -68.5 -27.5t-48 -54.5t-23.5 -27t-14 7t-13 15z" />
<glyph unicode="&#xd2;" horiz-adv-x="954" d="M98 727q0 384 96.5 555.5t299.5 171.5q134 0 212 -71.5t114 -229t36 -426.5q0 -271 -40.5 -435t-124 -238t-220.5 -74q-134 0 -213.5 69t-119.5 233t-40 445zM147 702q0 -247 34.5 -395t104 -213t183.5 -65q120 0 193 67.5t109 222t36 414.5q0 252 -34 399.5t-101.5 210 t-179.5 62.5q-118 0 -192 -67t-113.5 -223.5t-39.5 -412.5zM322 1821q10 47 26 47q150 -113 285 -240l-21 -33q-69 48 -141.5 104.5t-110.5 88.5z" />
<glyph unicode="&#xd3;" horiz-adv-x="954" d="M98 727q0 384 96.5 555.5t299.5 171.5q134 0 212 -71.5t114 -229t36 -426.5q0 -271 -40.5 -435t-124 -238t-220.5 -74q-134 0 -213.5 69t-119.5 233t-40 445zM147 702q0 -247 34.5 -395t104 -213t183.5 -65q120 0 193 67.5t109 222t36 414.5q0 252 -34 399.5t-101.5 210 t-179.5 62.5q-118 0 -192 -67t-113.5 -223.5t-39.5 -412.5zM322 1628q60 56 131 116t112 92l41 32q7 0 14 -12t10 -24l3 -11q-135 -117 -291 -226z" />
<glyph unicode="&#xd4;" horiz-adv-x="954" d="M98 727q0 384 96.5 555.5t299.5 171.5q134 0 212 -71.5t114 -229t36 -426.5q0 -271 -40.5 -435t-124 -238t-220.5 -74q-134 0 -213.5 69t-119.5 233t-40 445zM147 702q0 -247 34.5 -395t104 -213t183.5 -65q120 0 193 67.5t109 222t36 414.5q0 252 -34 399.5t-101.5 210 t-179.5 62.5q-118 0 -192 -67t-113.5 -223.5t-39.5 -412.5zM244 1626l225 211q4 4 16 4q15 0 29 -14l197 -197q-20 -33 -45 -33l-183 195q-188 -193 -200 -193q-13 0 -22.5 6.5t-12.5 13.5z" />
<glyph unicode="&#xd5;" horiz-adv-x="954" d="M98 727q0 384 96.5 555.5t299.5 171.5q134 0 212 -71.5t114 -229t36 -426.5q0 -271 -40.5 -435t-124 -238t-220.5 -74q-134 0 -213.5 69t-119.5 233t-40 445zM147 702q0 -247 34.5 -395t104 -213t183.5 -65q120 0 193 67.5t109 222t36 414.5q0 252 -34 399.5t-101.5 210 t-179.5 62.5q-118 0 -192 -67t-113.5 -223.5t-39.5 -412.5zM195 1667q45 74 85.5 98.5t98.5 24.5q27 0 48.5 -11.5t36.5 -28t29.5 -33.5t35 -28.5t46.5 -11.5q39 0 69.5 16.5t44 37t24.5 37t16 16.5q8 0 15.5 -8t11.5 -16l4 -7q-14 -27 -26 -45t-33.5 -39t-53 -32t-72.5 -11 q-35 0 -62.5 12.5t-45 30t-32.5 35.5t-32 30.5t-36 12.5q-38 0 -68.5 -27.5t-48 -54.5t-23.5 -27t-14 7t-13 15z" />
<glyph unicode="&#xd6;" horiz-adv-x="954" d="M98 727q0 384 96.5 555.5t299.5 171.5q134 0 212 -71.5t114 -229t36 -426.5q0 -271 -40.5 -435t-124 -238t-220.5 -74q-134 0 -213.5 69t-119.5 233t-40 445zM147 702q0 -247 34.5 -395t104 -213t183.5 -65q120 0 193 67.5t109 222t36 414.5q0 252 -34 399.5t-101.5 210 t-179.5 62.5q-118 0 -192 -67t-113.5 -223.5t-39.5 -412.5zM338 1724q3 58 39 58q40 0 37 -62q-2 -27 -11 -40t-30 -13q-38 3 -35 57zM543 1724q3 58 39 58q39 0 36 -62q-2 -28 -10.5 -40.5t-29.5 -12.5q-38 3 -35 57z" />
<glyph unicode="&#xd7;" d="M217 813q26 24 32.5 27t18.5 -6l430 -492q-5 -5 -10.5 -11t-8.5 -9t-6.5 -6t-6 -4t-4.5 -1q-3 0 -15 8z" />
<glyph unicode="&#xd8;" horiz-adv-x="954" d="M98 727q0 385 94.5 556t296.5 171q147 0 230 -86l41 105q35 -1 39 -21l-49 -123q106 -162 106 -602q0 -271 -40.5 -435t-124 -238t-220.5 -74q-156 0 -238 94l-45 -109h-6q-27 0 -32 21l53 129q-105 165 -105 612zM147 702q0 -381 84 -534l461 1151q-69 86 -200 86 q-118 0 -192 -67t-113.5 -223.5t-39.5 -412.5zM260 123q73 -94 209 -94q120 0 193 67.5t109 222t36 414.5q0 393 -84 543z" />
<glyph unicode="&#xd9;" horiz-adv-x="991" d="M139 465v948q0 15 6.5 18t42.5 3v-969q0 -54 2.5 -95.5t10.5 -89t21.5 -82t38 -68t58 -54.5t82.5 -34t111 -13q82 0 166.5 17t124.5 38v1331q0 13 8 16t41 3v-1387q-42 -27 -141 -47t-199 -20q-72 0 -128.5 14t-95 37t-66.5 60t-44 75t-25 91.5t-11.5 99.5t-2.5 108z M340 1821q11 47 27 47q149 -113 284 -240l-20 -33q-69 48 -142 104.5t-111 88.5z" />
<glyph unicode="&#xda;" horiz-adv-x="991" d="M139 465v948q0 15 6.5 18t42.5 3v-969q0 -54 2.5 -95.5t10.5 -89t21.5 -82t38 -68t58 -54.5t82.5 -34t111 -13q82 0 166.5 17t124.5 38v1331q0 13 8 16t41 3v-1387q-42 -27 -141 -47t-199 -20q-72 0 -128.5 14t-95 37t-66.5 60t-44 75t-25 91.5t-11.5 99.5t-2.5 108z M340 1628q60 56 131.5 116t112.5 92l41 32q7 0 13.5 -12t9.5 -24l3 -11q-135 -117 -291 -226z" />
<glyph unicode="&#xdb;" horiz-adv-x="991" d="M139 465v948q0 15 6.5 18t42.5 3v-969q0 -54 2.5 -95.5t10.5 -89t21.5 -82t38 -68t58 -54.5t82.5 -34t111 -13q82 0 166.5 17t124.5 38v1331q0 13 8 16t41 3v-1387q-42 -27 -141 -47t-199 -20q-72 0 -128.5 14t-95 37t-66.5 60t-44 75t-25 91.5t-11.5 99.5t-2.5 108z M262 1626l225 211q4 4 17 4q14 0 28 -14l197 -197q-20 -33 -45 -33l-182 195q-189 -193 -201 -193q-13 0 -22.5 6.5t-12.5 13.5z" />
<glyph unicode="&#xdc;" horiz-adv-x="991" d="M139 465v948q0 15 6.5 18t42.5 3v-969q0 -54 2.5 -95.5t10.5 -89t21.5 -82t38 -68t58 -54.5t82.5 -34t111 -13q82 0 166.5 17t124.5 38v1331q0 13 8 16t41 3v-1387q-42 -27 -141 -47t-199 -20q-72 0 -128.5 14t-95 37t-66.5 60t-44 75t-25 91.5t-11.5 99.5t-2.5 108z M356 1724q3 58 39 58q40 0 37 -62q-2 -27 -11 -40t-30 -13q-38 3 -35 57zM561 1724q3 58 39 58q40 0 37 -62q-2 -27 -11 -40t-30 -13q-38 3 -35 57z" />
<glyph unicode="&#xdd;" horiz-adv-x="731" d="M12 1423q-3 8 8 10q9 1 46 1l120 -306q34 -84 79.5 -207t74.5 -203l29 -81q108 298 182 491l113 295q3 8 11 9.5t46 1.5l-328 -846v-568q0 -15 -6 -17.5t-43 -2.5v588zM211 1628q60 56 131 116t112 92l42 32q7 0 13.5 -12t9.5 -24l3 -11q-135 -117 -291 -226z" />
<glyph unicode="&#xde;" horiz-adv-x="780" d="M139 0v1417q0 17 35 17h14v-289h195q75 0 134 -21t96 -56t61.5 -84t34.5 -101t10 -111q0 -207 -91 -316.5t-261 -109.5h-179v-326q0 -15 -6 -17.5t-43 -2.5zM188 395h177q153 0 229 100.5t76 276.5q0 69 -14.5 124t-47 101.5t-92.5 72.5t-143 26h-185v-701z" />
<glyph unicode="&#xdf;" horiz-adv-x="976" d="M127 -2q12 24 12 63v1063q0 170 81.5 244t230.5 74q83 0 151 -20t110.5 -51t71.5 -70.5t40.5 -76t11.5 -69.5q0 -36 -13.5 -66.5t-42 -56.5t-52 -42.5t-62.5 -39.5q-38 -23 -55 -34.5t-42 -32.5t-35 -42t-10 -46t11.5 -47.5t37.5 -46t47 -38.5t62 -42q48 -32 73 -50 t65.5 -54t61.5 -67.5t37.5 -78.5t16.5 -99q0 -144 -83.5 -217t-227.5 -73q-68 0 -125.5 16t-85 34t-27.5 31q0 8 4.5 17.5t9.5 15.5l5 6q42 -39 93 -56t128 -17q115 0 188.5 59.5t73.5 179.5q0 43 -14.5 83t-34 68.5t-55.5 60.5t-61 50.5t-69 47.5q-48 34 -70 50.5t-53 46 t-44 58t-13 60.5q0 34 12.5 62.5t41 54.5t49 40t61.5 39q34 20 56 34t45 35t34.5 44.5t11.5 50.5q0 40 -18.5 80.5t-55.5 77.5t-103 60.5t-150 23.5q-138 0 -204.5 -70t-66.5 -233v-1076q0 -32 -28 -32q-9 0 -17 3.5t-12 6.5z" />
<glyph unicode="&#xe0;" horiz-adv-x="784" d="M90 969q0 21 10 26q37 20 131.5 34.5t196.5 14.5q120 0 181 -57t61 -190v-135q0 -250 -13 -605l-11 -7q-11 -7 -15 -9t-17 -9t-21.5 -10.5t-24 -10t-28.5 -10t-31.5 -8.5t-36 -7t-39.5 -4t-44 -2q-50 -1 -87 2.5t-79 20.5t-69 48t-44.5 88t-17.5 137q0 61 10.5 110.5 t27.5 83.5t43.5 59.5t54.5 40t64.5 23.5t69 12t72.5 3q117 0 187 -20v200q0 64 -15 106.5t-44.5 63.5t-63 29t-80.5 8q-108 0 -194 -16t-126 -37q-8 13 -8 27zM141 279q0 -51 8 -91t20 -66t34 -44.5t40.5 -27.5t50 -14t52.5 -6t57 -1q64 0 122 18.5t83 40.5q13 177 13 453 q-80 22 -177 22q-38 0 -65.5 -2t-61.5 -8.5t-57.5 -18t-47.5 -33t-38.5 -51t-23.5 -73t-9 -98.5zM223 1411q11 47 27 47q150 -112 285 -239l-21 -33q-69 48 -142 104.5t-111 88.5z" />
<glyph unicode="&#xe1;" horiz-adv-x="784" d="M90 969q0 21 10 26q37 20 131.5 34.5t196.5 14.5q120 0 181 -57t61 -190v-135q0 -250 -13 -605l-11 -7q-11 -7 -15 -9t-17 -9t-21.5 -10.5t-24 -10t-28.5 -10t-31.5 -8.5t-36 -7t-39.5 -4t-44 -2q-50 -1 -87 2.5t-79 20.5t-69 48t-44.5 88t-17.5 137q0 61 10.5 110.5 t27.5 83.5t43.5 59.5t54.5 40t64.5 23.5t69 12t72.5 3q117 0 187 -20v200q0 64 -15 106.5t-44.5 63.5t-63 29t-80.5 8q-108 0 -194 -16t-126 -37q-8 13 -8 27zM141 279q0 -51 8 -91t20 -66t34 -44.5t40.5 -27.5t50 -14t52.5 -6t57 -1q64 0 122 18.5t83 40.5q13 177 13 453 q-80 22 -177 22q-38 0 -65.5 -2t-61.5 -8.5t-57.5 -18t-47.5 -33t-38.5 -51t-23.5 -73t-9 -98.5zM223 1219q60 56 131.5 116t112.5 91l41 32q7 0 14 -12t10 -24l3 -11q-135 -116 -291 -225z" />
<glyph unicode="&#xe2;" horiz-adv-x="784" d="M90 969q0 21 10 26q37 20 131.5 34.5t196.5 14.5q120 0 181 -57t61 -190v-135q0 -250 -13 -605l-11 -7q-11 -7 -15 -9t-17 -9t-21.5 -10.5t-24 -10t-28.5 -10t-31.5 -8.5t-36 -7t-39.5 -4t-44 -2q-50 -1 -87 2.5t-79 20.5t-69 48t-44.5 88t-17.5 137q0 61 10.5 110.5 t27.5 83.5t43.5 59.5t54.5 40t64.5 23.5t69 12t72.5 3q117 0 187 -20v200q0 64 -15 106.5t-44.5 63.5t-63 29t-80.5 8q-108 0 -194 -16t-126 -37q-8 13 -8 27zM141 279q0 -51 8 -91t20 -66t34 -44.5t40.5 -27.5t50 -14t52.5 -6t57 -1q64 0 122 18.5t83 40.5q13 177 13 453 q-80 22 -177 22q-38 0 -65.5 -2t-61.5 -8.5t-57.5 -18t-47.5 -33t-38.5 -51t-23.5 -73t-9 -98.5zM145 1217l226 210q5 5 16 5q14 0 29 -15l196 -196q-20 -33 -45 -33l-182 194q-189 -192 -201 -192q-13 0 -22.5 7t-13.5 13z" />
<glyph unicode="&#xe3;" horiz-adv-x="784" d="M90 969q0 21 10 26q37 20 131.5 34.5t196.5 14.5q120 0 181 -57t61 -190v-135q0 -250 -13 -605l-11 -7q-11 -7 -15 -9t-17 -9t-21.5 -10.5t-24 -10t-28.5 -10t-31.5 -8.5t-36 -7t-39.5 -4t-44 -2q-50 -1 -87 2.5t-79 20.5t-69 48t-44.5 88t-17.5 137q0 61 10.5 110.5 t27.5 83.5t43.5 59.5t54.5 40t64.5 23.5t69 12t72.5 3q117 0 187 -20v200q0 64 -15 106.5t-44.5 63.5t-63 29t-80.5 8q-108 0 -194 -16t-126 -37q-8 13 -8 27zM96 1257q45 74 85.5 98.5t99.5 24.5q27 0 48.5 -11.5t36.5 -28t29.5 -33t35 -28t46.5 -11.5q39 0 69.5 16.5 t44 36.5t24.5 36.5t16 16.5q8 0 15.5 -8t11.5 -16l4 -7q-14 -27 -26 -44.5t-33.5 -39t-53 -32t-72.5 -10.5q-35 0 -62.5 12.5t-45.5 30t-33 35t-32 30t-36 12.5q-38 0 -68.5 -27t-47.5 -54t-23 -27t-14.5 7t-13.5 14zM141 279q0 -51 8 -91t20 -66t34 -44.5t40.5 -27.5 t50 -14t52.5 -6t57 -1q64 0 122 18.5t83 40.5q13 177 13 453q-80 22 -177 22q-38 0 -65.5 -2t-61.5 -8.5t-57.5 -18t-47.5 -33t-38.5 -51t-23.5 -73t-9 -98.5z" />
<glyph unicode="&#xe4;" horiz-adv-x="784" d="M90 969q0 21 10 26q37 20 131.5 34.5t196.5 14.5q120 0 181 -57t61 -190v-135q0 -250 -13 -605l-11 -7q-11 -7 -15 -9t-17 -9t-21.5 -10.5t-24 -10t-28.5 -10t-31.5 -8.5t-36 -7t-39.5 -4t-44 -2q-50 -1 -87 2.5t-79 20.5t-69 48t-44.5 88t-17.5 137q0 61 10.5 110.5 t27.5 83.5t43.5 59.5t54.5 40t64.5 23.5t69 12t72.5 3q117 0 187 -20v200q0 64 -15 106.5t-44.5 63.5t-63 29t-80.5 8q-108 0 -194 -16t-126 -37q-8 13 -8 27zM141 279q0 -51 8 -91t20 -66t34 -44.5t40.5 -27.5t50 -14t52.5 -6t57 -1q64 0 122 18.5t83 40.5q13 177 13 453 q-80 22 -177 22q-38 0 -65.5 -2t-61.5 -8.5t-57.5 -18t-47.5 -33t-38.5 -51t-23.5 -73t-9 -98.5zM240 1315q3 57 39 57q39 0 36 -61q-3 -54 -41 -54q-37 3 -34 58zM444 1315q3 57 39 57q40 0 37 -61q-3 -54 -41 -54q-38 3 -35 58z" />
<glyph unicode="&#xe5;" horiz-adv-x="784" d="M90 969q0 21 10 26q37 20 131.5 34.5t196.5 14.5q120 0 181 -57t61 -190v-135q0 -250 -13 -605l-11 -7q-11 -7 -15 -9t-17 -9t-21.5 -10.5t-24 -10t-28.5 -10t-31.5 -8.5t-36 -7t-39.5 -4t-44 -2q-50 -1 -87 2.5t-79 20.5t-69 48t-44.5 88t-17.5 137q0 61 10.5 110.5 t27.5 83.5t43.5 59.5t54.5 40t64.5 23.5t69 12t72.5 3q117 0 187 -20v200q0 64 -15 106.5t-44.5 63.5t-63 29t-80.5 8q-108 0 -194 -16t-126 -37q-8 13 -8 27zM141 279q0 -51 8 -91t20 -66t34 -44.5t40.5 -27.5t50 -14t52.5 -6t57 -1q64 0 122 18.5t83 40.5q13 177 13 453 q-80 22 -177 22q-38 0 -65.5 -2t-61.5 -8.5t-57.5 -18t-47.5 -33t-38.5 -51t-23.5 -73t-9 -98.5zM211 1331q0 85 47 128.5t129 43.5t121 -39.5t39 -132.5q0 -82 -45.5 -126t-128.5 -44q-162 0 -162 170zM260 1325q0 -55 29 -85t84 -30q125 0 125 123q0 66 -27 93.5t-82 27.5 q-65 0 -97 -29t-32 -100z" />
<glyph unicode="&#xe6;" horiz-adv-x="1363" d="M92 276q0 61 10.5 110.5t27.5 83.5t43.5 59.5t54.5 40t64.5 23.5t69 12t72.5 3q117 0 187 -20v200q0 64 -15 106t-45.5 63.5t-66.5 29.5t-88 8q-197 0 -300 -61q-6 15 -6 29q0 19 17 28q95 53 305 53q120 0 182 -53t66 -178q20 61 49.5 105t60 68t70 37.5t71 17t72.5 3.5 q256 0 256 -309q0 -146 -14 -231q-84 -17 -188 -17q-195 0 -371 41l-2 -84q0 -80 8 -142.5t21.5 -105.5t35.5 -73.5t44.5 -47.5t55.5 -27t61.5 -12.5t68.5 -2.5q76 0 146.5 20t115.5 56q10 -20 10 -50q0 -11 -36.5 -28t-102 -32t-131.5 -15q-56 0 -96.5 5.5t-81.5 21.5 t-71.5 49.5t-51.5 84.5v-100q-36 -22 -108 -41.5t-173 -19.5q-51 -1 -87.5 2t-79 19.5t-68.5 47t-44 87t-18 136.5zM141 268q0 -66 15.5 -112t37.5 -70.5t60.5 -37.5t69.5 -16t79 -3q68 0 132 16.5t86 38.5v457q-80 22 -177 22q-38 0 -65.5 -2t-61.5 -9t-57.5 -19t-47.5 -34 t-38.5 -52.5t-23.5 -76t-9 -102.5zM678 575l41 -7q41 -7 70 -11t76.5 -10t95 -9t90.5 -3q77 0 141 12q8 81 8 164q-3 145 -47 214.5t-158 69.5q-32 0 -54 -2t-55 -10.5t-56.5 -24.5t-50.5 -47.5t-45.5 -74.5t-34 -110t-21.5 -151z" />
<glyph unicode="&#xe7;" horiz-adv-x="720" d="M102 489q0 102 12.5 185.5t32.5 140t50 99t61 67t70.5 39.5t73 19.5t73.5 4.5q65 0 118.5 -22t53.5 -47q0 -22 -12 -37q-70 57 -174 57q-32 0 -59 -4t-60 -17t-59 -35.5t-51 -61.5t-42 -92t-27.5 -131t-10.5 -175q0 -113 13.5 -195.5t36 -131t58 -77.5t73 -38.5 t87.5 -9.5q73 0 130 24t89 58q12 -15 12 -37q0 -24 -57.5 -53.5t-140.5 -36.5l-23 -107q14 4 39 4q39 0 67.5 -25.5t28.5 -78.5q0 -77 -38 -107t-89 -30q-24 0 -49 3t-38 6l-13 3q2 51 22 51q6 0 32.5 -8t45.5 -8q78 0 78 77q0 45 -20.5 59.5t-55.5 14.5q-15 0 -32.5 -2.5 t-27.5 -5.5l-11 -2l32 154q-54 1 -94.5 11.5t-81 42.5t-66 86.5t-41.5 147.5t-16 221z" />
<glyph unicode="&#xe8;" horiz-adv-x="798" d="M96 453q0 113 12.5 203.5t32.5 151.5t51 105.5t61 69t70 39t71.5 18.5t70.5 4q133 0 194.5 -85.5t61.5 -233.5q0 -136 -14 -221q-100 -19 -231.5 -29t-208.5 -9t-122 1v-23q0 -80 8 -143t21.5 -106t35.5 -74t44.5 -48.5t55.5 -27.5t61.5 -13t68.5 -3q77 0 147 19.5 t115 55.5q11 -22 11 -38q0 -26 -85.5 -56t-185.5 -30q-47 0 -82.5 4t-73 16t-64.5 33t-52 56.5t-40.5 85t-24.5 119.5t-9 159zM147 516q44 0 121.5 -1t197 7t198.5 25q8 81 8 153q-3 147 -47.5 221t-157.5 74q-29 0 -49.5 -2t-50.5 -8t-52.5 -20t-48 -36.5t-44.5 -58.5 t-35.5 -84.5t-26.5 -117t-13 -152.5zM244 1411q10 47 26 47q150 -112 285 -239l-20 -33q-69 48 -142 104.5t-111 88.5z" />
<glyph unicode="&#xe9;" horiz-adv-x="798" d="M96 453q0 113 12.5 203.5t32.5 151.5t51 105.5t61 69t70 39t71.5 18.5t70.5 4q133 0 194.5 -85.5t61.5 -233.5q0 -136 -14 -221q-100 -19 -231.5 -29t-208.5 -9t-122 1v-23q0 -80 8 -143t21.5 -106t35.5 -74t44.5 -48.5t55.5 -27.5t61.5 -13t68.5 -3q77 0 147 19.5 t115 55.5q11 -22 11 -38q0 -26 -85.5 -56t-185.5 -30q-47 0 -82.5 4t-73 16t-64.5 33t-52 56.5t-40.5 85t-24.5 119.5t-9 159zM147 516q44 0 121.5 -1t197 7t198.5 25q8 81 8 153q-3 147 -47.5 221t-157.5 74q-29 0 -49.5 -2t-50.5 -8t-52.5 -20t-48 -36.5t-44.5 -58.5 t-35.5 -84.5t-26.5 -117t-13 -152.5zM244 1219q60 56 131 116t112 91l41 32q7 0 14 -12t10 -24l3 -11q-135 -116 -291 -225z" />
<glyph unicode="&#xea;" horiz-adv-x="798" d="M96 453q0 113 12.5 203.5t32.5 151.5t51 105.5t61 69t70 39t71.5 18.5t70.5 4q133 0 194.5 -85.5t61.5 -233.5q0 -136 -14 -221q-100 -19 -231.5 -29t-208.5 -9t-122 1v-23q0 -80 8 -143t21.5 -106t35.5 -74t44.5 -48.5t55.5 -27.5t61.5 -13t68.5 -3q77 0 147 19.5 t115 55.5q11 -22 11 -38q0 -26 -85.5 -56t-185.5 -30q-47 0 -82.5 4t-73 16t-64.5 33t-52 56.5t-40.5 85t-24.5 119.5t-9 159zM147 516q44 0 121.5 -1t197 7t198.5 25q8 81 8 153q-3 147 -47.5 221t-157.5 74q-29 0 -49.5 -2t-50.5 -8t-52.5 -20t-48 -36.5t-44.5 -58.5 t-35.5 -84.5t-26.5 -117t-13 -152.5zM166 1217l225 210q5 5 17 5q13 0 28 -15l197 -196q-20 -33 -45 -33l-182 194q-189 -192 -201 -192q-13 0 -22.5 7t-12.5 13z" />
<glyph unicode="&#xeb;" horiz-adv-x="798" d="M96 453q0 113 12.5 203.5t32.5 151.5t51 105.5t61 69t70 39t71.5 18.5t70.5 4q133 0 194.5 -85.5t61.5 -233.5q0 -136 -14 -221q-100 -19 -231.5 -29t-208.5 -9t-122 1v-23q0 -80 8 -143t21.5 -106t35.5 -74t44.5 -48.5t55.5 -27.5t61.5 -13t68.5 -3q77 0 147 19.5 t115 55.5q11 -22 11 -38q0 -26 -85.5 -56t-185.5 -30q-47 0 -82.5 4t-73 16t-64.5 33t-52 56.5t-40.5 85t-24.5 119.5t-9 159zM147 516q44 0 121.5 -1t197 7t198.5 25q8 81 8 153q-3 147 -47.5 221t-157.5 74q-29 0 -49.5 -2t-50.5 -8t-52.5 -20t-48 -36.5t-44.5 -58.5 t-35.5 -84.5t-26.5 -117t-13 -152.5zM260 1315q3 57 39 57q40 0 37 -61q-3 -54 -41 -54q-38 3 -35 58zM465 1315q3 57 39 57q40 0 37 -61q-3 -54 -41 -54q-38 3 -35 58z" />
<glyph unicode="&#xec;" horiz-adv-x="339" d="M14 1411q11 47 27 47q150 -112 285 -239l-21 -33q-69 48 -142 104.5t-111 88.5zM145 0v993q0 22 9 26.5t41 4.5v-1004q0 -15 -6.5 -17.5t-43.5 -2.5z" />
<glyph unicode="&#xed;" horiz-adv-x="339" d="M14 1219q60 56 131 116t113 91l41 32q7 0 14 -12t10 -24l3 -11q-135 -116 -291 -225zM145 0v993q0 22 9 26.5t41 4.5v-1004q0 -15 -6.5 -17.5t-43.5 -2.5z" />
<glyph unicode="&#xee;" horiz-adv-x="339" d="M-63 1217l225 210q5 5 16 5q14 0 29 -15l196 -196q-20 -33 -45 -33l-182 194q-189 -192 -201 -192q-13 0 -22.5 7t-12.5 13zM145 0v993q0 22 9 26.5t41 4.5v-1004q0 -15 -6.5 -17.5t-43.5 -2.5z" />
<glyph unicode="&#xef;" horiz-adv-x="339" d="M31 1315q3 57 39 57q39 0 36 -61q-2 -28 -10.5 -41t-29.5 -13q-38 3 -35 58zM145 0v993q0 22 9 26.5t41 4.5v-1004q0 -15 -6.5 -17.5t-43.5 -2.5zM236 1315q3 57 38 57q40 0 37 -61q-3 -54 -41 -54q-37 3 -34 58z" />
<glyph unicode="&#xf0;" d="M96 524q0 255 96.5 385.5t280.5 130.5t281 -129q-57 245 -219 418l-193 -78q-12 30 -12 41q0 9 12 15l154 63q-65 62 -154 123q3 13 11.5 21t17.5 8t26 -11q89 -63 148 -122l172 69q12 -34 12 -41q0 -8 -12 -14l-133 -53q129 -141 189.5 -326t60.5 -432 q0 -86 -5.5 -155.5t-19.5 -142.5t-40.5 -127t-65.5 -97.5t-98.5 -66.5t-135.5 -23q-185 0 -279 131.5t-94 412.5zM145 524q0 -495 324 -495q59 0 106.5 18t80 47.5t56.5 75.5t37.5 93.5t21.5 110.5t10.5 117.5t2.5 122.5q0 98 -12 187q-105 190 -297 190q-158 0 -244 -116.5 t-86 -350.5z" />
<glyph unicode="&#xf1;" horiz-adv-x="864" d="M137 0v971q180 73 338 73q84 0 139 -18.5t84.5 -58t40.5 -89t11 -124.5v-734q0 -15 -6.5 -17.5t-43.5 -2.5v745q0 135 -45.5 192.5t-177.5 57.5q-66 0 -149.5 -15.5t-141.5 -43.5v-916q0 -15 -6.5 -17.5t-42.5 -2.5zM150 1257q45 74 85.5 98.5t98.5 24.5q27 0 48.5 -11.5 t36.5 -28t29.5 -33t35 -28t46.5 -11.5q39 0 69.5 16.5t44 36.5t24.5 36.5t16 16.5q8 0 16 -8t12 -16l3 -7q-14 -27 -26 -44.5t-33.5 -39t-53 -32t-72.5 -10.5q-35 0 -62.5 12.5t-45 30t-32.5 35t-32 30t-36 12.5q-38 0 -68.5 -27t-48 -54t-23.5 -27t-14 7t-13 14z" />
<glyph unicode="&#xf2;" horiz-adv-x="821" d="M82 508q0 536 342 536q81 0 137 -24.5t97.5 -84.5t61 -165.5t19.5 -261.5q0 -262 -87.5 -395t-252.5 -133q-62 0 -105.5 10t-86.5 42t-68.5 89t-41 154t-15.5 233zM131 494q0 -137 17.5 -229.5t53.5 -143.5t83.5 -71.5t115.5 -20.5q136 0 212.5 123.5t76.5 363.5 q0 141 -18 236.5t-54.5 148t-83 73.5t-112.5 21q-68 0 -120 -26.5t-91 -84t-59.5 -155.5t-20.5 -235zM338 1411q11 47 27 47q149 -112 284 -239l-20 -33q-69 48 -142 104.5t-111 88.5z" />
<glyph unicode="&#xf3;" horiz-adv-x="821" d="M82 508q0 536 342 536q81 0 137 -24.5t97.5 -84.5t61 -165.5t19.5 -261.5q0 -262 -87.5 -395t-252.5 -133q-62 0 -105.5 10t-86.5 42t-68.5 89t-41 154t-15.5 233zM131 494q0 -137 17.5 -229.5t53.5 -143.5t83.5 -71.5t115.5 -20.5q136 0 212.5 123.5t76.5 363.5 q0 141 -18 236.5t-54.5 148t-83 73.5t-112.5 21q-68 0 -120 -26.5t-91 -84t-59.5 -155.5t-20.5 -235zM338 1219q60 56 131.5 116t112.5 91l41 32q7 0 13.5 -12t9.5 -24l3 -11q-135 -116 -291 -225z" />
<glyph unicode="&#xf4;" horiz-adv-x="821" d="M82 508q0 536 342 536q81 0 137 -24.5t97.5 -84.5t61 -165.5t19.5 -261.5q0 -262 -87.5 -395t-252.5 -133q-62 0 -105.5 10t-86.5 42t-68.5 89t-41 154t-15.5 233zM131 494q0 -137 17.5 -229.5t53.5 -143.5t83.5 -71.5t115.5 -20.5q136 0 212.5 123.5t76.5 363.5 q0 141 -18 236.5t-54.5 148t-83 73.5t-112.5 21q-68 0 -120 -26.5t-91 -84t-59.5 -155.5t-20.5 -235zM260 1217l225 210q5 5 17 5q13 0 28 -15l197 -196q-20 -33 -45 -33l-182 194q-189 -192 -201 -192q-13 0 -22.5 7t-12.5 13z" />
<glyph unicode="&#xf5;" horiz-adv-x="821" d="M82 508q0 536 342 536q81 0 137 -24.5t97.5 -84.5t61 -165.5t19.5 -261.5q0 -262 -87.5 -395t-252.5 -133q-62 0 -105.5 10t-86.5 42t-68.5 89t-41 154t-15.5 233zM131 494q0 -137 17.5 -229.5t53.5 -143.5t83.5 -71.5t115.5 -20.5q136 0 212.5 123.5t76.5 363.5 q0 141 -18 236.5t-54.5 148t-83 73.5t-112.5 21q-68 0 -120 -26.5t-91 -84t-59.5 -155.5t-20.5 -235zM211 1257q45 74 85.5 98.5t98.5 24.5q33 0 59 -17.5t41 -38.5t40.5 -38.5t56.5 -17.5q32 0 58 11t41 26.5t25.5 31t17.5 26.5t11 11q8 0 15.5 -8t11.5 -16l4 -7 q-14 -27 -25.5 -44.5t-33 -39t-53 -32t-72.5 -10.5q-35 0 -62.5 12.5t-45.5 30t-33 35t-32 30t-36 12.5q-38 0 -68.5 -27t-47.5 -54t-23 -27t-14.5 7t-13.5 14z" />
<glyph unicode="&#xf6;" horiz-adv-x="821" d="M82 508q0 536 342 536q81 0 137 -24.5t97.5 -84.5t61 -165.5t19.5 -261.5q0 -262 -87.5 -395t-252.5 -133q-62 0 -105.5 10t-86.5 42t-68.5 89t-41 154t-15.5 233zM131 494q0 -137 17.5 -229.5t53.5 -143.5t83.5 -71.5t115.5 -20.5q136 0 212.5 123.5t76.5 363.5 q0 141 -18 236.5t-54.5 148t-83 73.5t-112.5 21q-68 0 -120 -26.5t-91 -84t-59.5 -155.5t-20.5 -235zM354 1315q3 57 39 57q40 0 37 -61q-3 -54 -41 -54q-38 3 -35 58zM559 1315q3 57 39 57q40 0 37 -61q-3 -54 -41 -54q-38 3 -35 58z" />
<glyph unicode="&#xf7;" d="M104 551q0 35 3 43t18 8h696v-27.5t-2.5 -14.5t-6 -8t-11.5 -1h-697zM397 309q0 26 15.5 44t40.5 18q26 0 42.5 -18.5t16.5 -43.5q0 -28 -16.5 -45.5t-42.5 -17.5t-41 17.5t-15 45.5zM397 834q0 26 15.5 43.5t40.5 17.5q26 0 42.5 -18t16.5 -43q0 -28 -16.5 -46 t-42.5 -18t-41 18t-15 46z" />
<glyph unicode="&#xf8;" horiz-adv-x="897" d="M86 -10l96 153q-49 119 -49 365q0 536 338 536q157 0 229 -100l80 125q35 -7 35 -27l-88 -139q64 -131 64 -395q0 -261 -85.5 -394.5t-240.5 -133.5q-95 0 -157.5 25t-102.5 93l-84 -135q-35 0 -35 27zM182 494q0 -198 39 -310l447 719q-62 92 -195 92q-68 0 -120 -26.5 t-91 -84t-59.5 -155.5t-20.5 -235zM244 137q59 -108 209 -108q136 0 212 123.5t76 363.5q0 230 -51 344z" />
<glyph unicode="&#xf9;" horiz-adv-x="911" d="M150 379v625q0 15 6 17.5t43 2.5v-659q0 -197 54 -266.5t212 -69.5q53 0 123 13.5t125 43.5v918q0 14 8.5 17t40.5 3v-977q-134 -67 -313 -67q-90 0 -147 20t-91.5 69t-47.5 121.5t-13 188.5zM301 1411q11 47 27 47q149 -112 284 -239l-20 -33q-69 48 -142 104.5 t-111 88.5z" />
<glyph unicode="&#xfa;" horiz-adv-x="911" d="M150 379v625q0 15 6 17.5t43 2.5v-659q0 -197 54 -266.5t212 -69.5q53 0 123 13.5t125 43.5v918q0 14 8.5 17t40.5 3v-977q-134 -67 -313 -67q-90 0 -147 20t-91.5 69t-47.5 121.5t-13 188.5zM301 1219q60 56 131.5 116t112.5 91l41 32q7 0 13.5 -12t9.5 -24l3 -11 q-134 -116 -290 -225z" />
<glyph unicode="&#xfb;" horiz-adv-x="911" d="M150 379v625q0 15 6 17.5t43 2.5v-659q0 -197 54 -266.5t212 -69.5q53 0 123 13.5t125 43.5v918q0 14 8.5 17t40.5 3v-977q-134 -67 -313 -67q-90 0 -147 20t-91.5 69t-47.5 121.5t-13 188.5zM223 1217l226 210q5 5 16 5q14 0 29 -15l196 -196q-20 -33 -45 -33l-182 194 q-189 -192 -201 -192q-13 0 -22.5 7t-13.5 13z" />
<glyph unicode="&#xfc;" horiz-adv-x="911" d="M150 379v625q0 15 6 17.5t43 2.5v-659q0 -197 54 -266.5t212 -69.5q53 0 123 13.5t125 43.5v918q0 14 8.5 17t40.5 3v-977q-134 -67 -313 -67q-90 0 -147 20t-91.5 69t-47.5 121.5t-13 188.5zM317 1315q3 57 39 57q40 0 37 -61q-3 -54 -41 -54q-38 3 -35 58zM522 1315 q3 57 39 57q40 0 37 -61q-3 -54 -41 -54q-38 3 -35 58z" />
<glyph unicode="&#xfd;" horiz-adv-x="790" d="M16 -356q0 21 17 34q53 -24 114 -24q155 0 234 313l-289 1037q-4 15 2 17.5t43 2.5l205 -735q16 -60 32 -127.5t24 -105.5l8 -38q24 134 61 275l188 711q5 15 12 17.5t46 2.5l-293 -1096q-48 -174 -115.5 -248.5t-159.5 -74.5q-129 0 -129 39zM240 1219q60 56 131 116 t112 91l41 32q7 0 14 -12t10 -24l3 -11q-135 -116 -291 -225z" />
<glyph unicode="&#xfe;" horiz-adv-x="858" d="M143 -395v1870q0 22 9 26t41 4v-514q102 51 241 51q85 0 145.5 -22t106 -73.5t68 -140.5t22.5 -218q0 -112 -15.5 -204t-40 -153.5t-59.5 -108.5t-69 -73t-74 -41.5t-70 -20.5t-61 -5q-129 0 -194 77v-467q-10 -2 -27 -2q-23 0 -23 15zM193 129q66 -98 190 -98q26 0 52 5 t61 20.5t66 39t62 66t53 97.5t36 136.5t14 179.5q0 121 -20.5 204.5t-60.5 129.5t-90 65t-118 19q-142 0 -245 -65v-799z" />
<glyph unicode="&#xff;" horiz-adv-x="790" d="M16 -356q0 21 17 34q53 -24 114 -24q155 0 234 313l-289 1037q-4 15 2 17.5t43 2.5l205 -735q16 -60 32 -127.5t24 -105.5l8 -38q24 134 61 275l188 711q5 15 12 17.5t46 2.5l-293 -1096q-48 -174 -115.5 -248.5t-159.5 -74.5q-129 0 -129 39zM256 1315q3 57 39 57 q40 0 37 -61q-3 -54 -41 -54q-38 3 -35 58zM461 1315q3 57 39 57q40 0 37 -61q-3 -54 -41 -54q-38 3 -35 58z" />
<glyph unicode="&#x152;" horiz-adv-x="1372" d="M98 727q0 385 94.5 556t296.5 171q118 0 189.5 -54t107.5 -175v188q1 21 21 21h489q0 -33 -1.5 -41.5t-10.5 -8.5h-448v-573h419q0 -49 -16 -49h-403v-713h464q0 -34 -2 -41.5t-14 -7.5h-498v236q-39 -134 -115 -195t-200 -61q-134 0 -213.5 69t-119.5 233t-40 445z M147 702q0 -247 34.5 -395t104 -213t183.5 -65q119 0 187.5 68.5t99 220t30.5 415.5q0 256 -28.5 400.5t-91.5 208t-174 63.5q-118 0 -192 -67t-113.5 -223.5t-39.5 -412.5z" />
<glyph unicode="&#x153;" horiz-adv-x="1423" d="M102 508q0 536 338 536q124 0 197.5 -63t101.5 -217q18 77 48 131t61 82.5t75.5 44t76.5 19t79 3.5q256 0 256 -309q0 -146 -14 -231q-193 -37 -494 -37h-67v-23q0 -80 8 -143t21.5 -106t35.5 -74t44.5 -48.5t55.5 -27.5t61.5 -13t68.5 -3q77 0 147 19.5t115 55.5 q10 -20 10 -49q0 -11 -36.5 -28t-102 -32t-131.5 -15q-52 0 -91 5t-79.5 21t-69.5 44t-52 76t-36 114q-36 -129 -112 -194.5t-183 -65.5q-67 0 -113 10t-90.5 42t-70.5 89t-42 153.5t-16 233.5zM152 494q0 -137 17.5 -229.5t53.5 -143.5t83.5 -71.5t115.5 -20.5 q136 0 212.5 123.5t76.5 363.5q0 141 -18 236.5t-55 148t-83.5 73.5t-112.5 21q-68 0 -120 -26.5t-91 -84t-59 -155.5t-20 -235zM762 516q4 0 31.5 -1t50.5 -1q276 0 434 33q8 81 8 164q-3 145 -47 214.5t-158 69.5q-52 0 -81.5 -3.5t-79 -28t-77.5 -71.5t-52.5 -143 t-28.5 -233z" />
<glyph unicode="&#x178;" horiz-adv-x="731" d="M12 1423q-3 8 8 10q9 1 46 1l120 -306q34 -84 79.5 -207t74.5 -203l29 -81q108 298 182 491l113 295q3 8 11 9.5t46 1.5l-328 -846v-568q0 -15 -6 -17.5t-43 -2.5v588zM227 1724q3 58 39 58q40 0 37 -62q-2 -27 -11 -40t-30 -13q-38 3 -35 57zM432 1724q3 58 39 58 q40 0 37 -62q-2 -27 -11 -40t-30 -13q-38 3 -35 57z" />
<glyph unicode="&#x2c6;" horiz-adv-x="512" d="M23 1217l225 210q5 5 16 5q14 0 29 -15l196 -196q-20 -33 -45 -33l-182 194q-189 -192 -201 -192q-13 0 -22.5 7t-12.5 13z" />
<glyph unicode="&#x2dc;" horiz-adv-x="512" d="M-27 1257q45 74 85.5 98.5t99.5 24.5q23 0 42.5 -9t30.5 -19.5t27 -28.5t26 -28t29 -18.5t41 -8.5q39 0 69.5 16.5t44 36.5t24.5 36.5t16 16.5q8 0 16 -8t12 -16l3 -7q-14 -27 -26 -44.5t-33.5 -39t-53 -32t-72.5 -10.5q-34 0 -61.5 12.5t-41 24.5t-34.5 36 q-17 18 -23 24.5t-20.5 14.5t-28.5 8q-38 0 -68.5 -27t-47.5 -54t-23 -27t-14.5 7t-13.5 14z" />
<glyph unicode="&#x2000;" horiz-adv-x="956" />
<glyph unicode="&#x2001;" horiz-adv-x="1913" />
<glyph unicode="&#x2002;" horiz-adv-x="956" />
<glyph unicode="&#x2003;" horiz-adv-x="1913" />
<glyph unicode="&#x2004;" horiz-adv-x="637" />
<glyph unicode="&#x2005;" horiz-adv-x="478" />
<glyph unicode="&#x2006;" horiz-adv-x="318" />
<glyph unicode="&#x2007;" horiz-adv-x="318" />
<glyph unicode="&#x2008;" horiz-adv-x="239" />
<glyph unicode="&#x2009;" horiz-adv-x="382" />
<glyph unicode="&#x200a;" horiz-adv-x="106" />
<glyph unicode="&#x2010;" horiz-adv-x="622" d="M102 551q0 35 3 43t18 8h397v-27.5t-2.5 -14.5t-6 -8t-11.5 -1h-398z" />
<glyph unicode="&#x2011;" horiz-adv-x="622" d="M102 551q0 35 3 43t18 8h397v-27.5t-2.5 -14.5t-6 -8t-11.5 -1h-398z" />
<glyph unicode="&#x2012;" horiz-adv-x="622" d="M102 551q0 35 3 43t18 8h397v-27.5t-2.5 -14.5t-6 -8t-11.5 -1h-398z" />
<glyph unicode="&#x2013;" d="M102 551q0 35 3 43t18 8h696v-27.5t-2.5 -14.5t-6 -8t-11.5 -1h-697z" />
<glyph unicode="&#x2014;" horiz-adv-x="1433" d="M12 551q0 35 3 43t18 8h1388v-27.5t-2.5 -14.5t-6 -8t-11.5 -1h-1389z" />
<glyph unicode="&#x2018;" horiz-adv-x="288" d="M86 1266q0 82 34 214t56 132q7 0 16 -8.5t11 -16.5q-23 -52 -34 -133t-9 -141q30 -19 30 -60q0 -26 -14 -41.5t-39 -15.5q-26 0 -38.5 14.5t-12.5 55.5z" />
<glyph unicode="&#x2019;" horiz-adv-x="288" d="M86 1202q23 52 34 133.5t9 141.5q-31 19 -31 59q0 26 14.5 41.5t39.5 15.5q26 0 38.5 -14t12.5 -55q0 -82 -34 -214t-56 -132q-7 0 -16 8t-11 16z" />
<glyph unicode="&#x201a;" horiz-adv-x="288" d="M86 -201q23 52 34 133.5t9 141.5q-31 19 -31 59q0 26 14.5 41.5t39.5 15.5q26 0 38.5 -14t12.5 -55q0 -82 -34 -214t-56 -132q-7 0 -16 8t-11 16z" />
<glyph unicode="&#x201c;" horiz-adv-x="544" d="M86 1266q0 82 34 214t56 132q7 0 16 -8.5t11 -16.5q-23 -52 -34 -133t-9 -141q30 -19 30 -60q0 -26 -14 -41.5t-39 -15.5q-26 0 -38.5 14.5t-12.5 55.5zM342 1266q0 82 34 214t56 132q7 0 16 -8.5t11 -16.5q-23 -52 -34 -133t-9 -141q30 -19 30 -60q0 -26 -14 -41.5 t-39 -15.5q-26 0 -38.5 14.5t-12.5 55.5z" />
<glyph unicode="&#x201d;" horiz-adv-x="544" d="M86 1202q23 52 34 133.5t9 141.5q-31 19 -31 59q0 26 14.5 41.5t39.5 15.5q26 0 38.5 -14t12.5 -55q0 -82 -34 -214t-56 -132q-7 0 -16 8t-11 16zM342 1202q23 52 34 133.5t9 141.5q-31 19 -31 59q0 26 14.5 41.5t39.5 15.5q26 0 38.5 -14t12.5 -55q0 -82 -34 -214 t-56 -132q-7 0 -16 8t-11 16z" />
<glyph unicode="&#x201e;" horiz-adv-x="544" d="M86 -201q23 52 34 133.5t9 141.5q-31 19 -31 59q0 26 14.5 41.5t39.5 15.5q26 0 38.5 -14t12.5 -55q0 -82 -34 -214t-56 -132q-7 0 -16 8t-11 16zM342 -201q23 52 34 133.5t9 141.5q-31 19 -31 59q0 26 14.5 41.5t39.5 15.5q26 0 38.5 -14t12.5 -55q0 -82 -34 -214 t-56 -132q-7 0 -16 8t-11 16z" />
<glyph unicode="&#x2022;" horiz-adv-x="413" d="M129 573q0 43 25.5 73t66.5 30q42 0 70 -30.5t28 -72.5q0 -46 -27.5 -76t-70.5 -30q-42 0 -67 29.5t-25 76.5z" />
<glyph unicode="&#x2026;" horiz-adv-x="917" d="M109 55q0 26 15 44t40 18q26 0 42.5 -18.5t16.5 -43.5q0 -28 -16.5 -45.5t-42.5 -17.5t-40.5 17.5t-14.5 45.5zM399 55q0 26 15.5 44t40.5 18q26 0 42.5 -18.5t16.5 -43.5q0 -28 -16.5 -45.5t-42.5 -17.5t-41 17.5t-15 45.5zM690 55q0 26 15 44t40 18q26 0 43 -18.5 t17 -43.5q0 -28 -17 -45.5t-43 -17.5t-40.5 17.5t-14.5 45.5z" />
<glyph unicode="&#x202f;" horiz-adv-x="382" />
<glyph unicode="&#x2039;" horiz-adv-x="548" d="M82 512q0 15 77.5 143t155.5 249l78 120q9 0 17 -6t12 -12l4 -7q0 -13 -73 -134.5t-147 -236.5l-73 -116q303 -459 303 -475q-12 -37 -26 -37q-328 475 -328 512z" />
<glyph unicode="&#x203a;" horiz-adv-x="548" d="M113 35q0 7 75.5 126.5t151.5 234.5l76 116q-293 458 -293 487q0 8 8.5 14.5t16.5 8.5l8 2q311 -479 311 -512q0 -16 -81.5 -144t-163.5 -248l-81 -120l-7.5 2.5t-12.5 10.5t-8 22z" />
<glyph unicode="&#x205f;" horiz-adv-x="478" />
<glyph unicode="&#x20ac;" d="M57 459q0 27 5.5 36t23.5 9h162v41q0 107 10 209h-201q0 27 5.5 36t23.5 9h176q15 113 45 195.5t64.5 128.5t82.5 73t89 35t92 8q32 0 63 -6.5t53 -16.5t39 -20.5t25 -19t8 -11.5q0 -11 -5 -22.5t-11 -14.5q-11 10 -29.5 21.5t-58.5 26t-78 14.5q-32 0 -57 -2.5 t-56 -12.5t-55.5 -26t-51 -45.5t-46 -70t-36 -100t-26.5 -134.5h383q0 -27 -5 -36t-23 -9h-359q-10 -105 -10 -217v-33h311q0 -27 -5 -36t-23 -9h-281q3 -83 15 -149.5t29 -110.5t42 -76.5t49 -50t55.5 -28t56.5 -13t58 -2.5q63 0 125.5 29.5t93.5 68.5q15 -20 15 -41 q0 -15 -32.5 -40t-90.5 -45.5t-115 -20.5q-33 0 -60 3t-59 10.5t-57 23t-51.5 39t-46.5 60t-36.5 84t-27 113.5t-14.5 146h-193z" />
<glyph unicode="&#x2122;" horiz-adv-x="1146" d="M82 1384v29q0 9 5 14t10 6l5 1h445v-29q0 -9 -5.5 -14t-10.5 -6l-5 -1h-178v-579q0 -14 -6.5 -16.5t-42.5 -2.5v598h-217zM594 786v627q0 21 20 21h23l119 -314l61 -143l51 139l117 297q5 21 21 21h28v-627q0 -15 -6.5 -18t-42.5 -3v240v246l-61 -156l-80 -203 q-6 -12 -13 -12h-43l-83 215l-62 150v-242v-217q0 -15 -6.5 -18t-42.5 -3z" />
<glyph unicode="&#x25fc;" horiz-adv-x="1024" d="M0 0v1024h1024v-1024h-1024z" />
<glyph unicode="&#xfb03;" horiz-adv-x="1284" d="M39 975q0 35 2.5 42t17.5 7h154v162q0 65 13 116.5t32.5 84t50 56.5t56.5 35.5t61.5 18t55.5 7.5t48 1q120 0 220 -71q46 51 106.5 66.5t140.5 15.5q76 0 125 -13.5t49 -32.5q0 -10 -8 -30q-80 26 -170 26q-43 0 -74 -4t-70 -22t-64 -50t-42.5 -92.5t-17.5 -144.5v-129 h209q0 -34 -3 -41.5t-18 -7.5h-188v-955q0 -20 -20 -20h-29v975h-414v-955q0 -20 -20 -20h-29v975h-174zM262 1024h414v137q0 149 45 228q-42 36 -90.5 51.5t-116.5 15.5q-33 0 -58.5 -3t-64.5 -18.5t-64.5 -42.5t-45 -82.5t-19.5 -131.5v-154zM1087 0v993q0 22 9.5 26.5 t40.5 4.5v-1004v-4q0 -12 -7 -14t-43 -2z" />
<glyph unicode="&#xfb04;" horiz-adv-x="1302" d="M39 975q0 35 2.5 42t17.5 7h154v162q0 65 13 116.5t32.5 84t50 56.5t56.5 35.5t61.5 18t55.5 7.5t48 1q118 0 215 -69q27 34 68.5 52.5t72 21.5t77.5 3q116 0 194 -40v-1453v-6q0 -10 -6.5 -12t-42.5 -2v1442q-63 22 -145 22q-31 0 -49 -1t-46.5 -7t-45.5 -16.5 t-37.5 -32.5t-32 -53t-19.5 -78.5t-8 -108.5v-143h209q0 -34 -3 -41.5t-18 -7.5h-188v-955q0 -20 -20 -20h-29v975h-414v-955q0 -20 -20 -20h-29v975h-174zM262 1024h414v137q0 146 41 230q-40 36 -87.5 50.5t-115.5 14.5q-33 0 -58.5 -3t-64.5 -18.5t-64.5 -42.5t-45 -82.5 t-19.5 -131.5v-154z" />
</font>
</defs>
</svg>
